  0
SECTION
  2
HEADER
  9
$ACADVER
  1
AC1024
  9
$ACADMAINTVER
 70
     6
  9
$DWGCODEPAGE
  3
ASCII
  9
$INSBASE
 10
0.0
 20
0.0
 30
0.0
  9
$EXTMIN
 10
1.000000000000000E+20
 20
1.000000000000000E+20
 30
1.000000000000000E+20
  9
$EXTMAX
 10
-1.000000000000000E+20
 20
-1.000000000000000E+20
 30
-1.000000000000000E+20
  9
$LIMMIN
 10
0.0
 20
0.0
  9
$LIMMAX
 10
12.0
 20
9.0
  9
$ORTHOMODE
 70
     0
  9
$REGENMODE
 70
     1
  9
$FILLMODE
 70
     1
  9
$QTEXTMODE
 70
     0
  9
$MIRRTEXT
 70
     1
  9
$LTSCALE
 40
1.0
  9
$ATTMODE
 70
     1
  9
$TEXTSIZE
 40
0.2
  9
$TRACEWID
 40
0.05
  9
$TEXTSTYLE
  7
Standard
  9
$CLAYER
  8
0
  9
$CELTYPE
  6
ByLayer
  9
$CECOLOR
 62
   256
  9
$CELTSCALE
 40
1.0
  9
$DISPSILH
 70
     0
  9
$DIMSCALE
 40
1.0
  9
$DIMASZ
 40
8.0
  9
$DIMEXO
 40
2.0
  9
$DIMDLI
 40
0.38
  9
$DIMRND
 40
0.0
  9
$DIMDLE
 40
0.0
  9
$DIMEXE
 40
4.0
  9
$DIMTP
 40
0.0
  9
$DIMTM
 40
0.0
  9
$DIMTXT
 40
8.0
  9
$DIMCEN
 40
0.09
  9
$DIMTSZ
 40
0.0
  9
$DIMTOL
 70
     0
  9
$DIMLIM
 70
     0
  9
$DIMTIH
 70
     1
  9
$DIMTOH
 70
     1
  9
$DIMSE1
 70
     0
  9
$DIMSE2
 70
     0
  9
$DIMTAD
 70
     0
  9
$DIMZIN
 70
     8
  9
$DIMBLK
  1

  9
$DIMASO
 70
     1
  9
$DIMSHO
 70
     1
  9
$DIMPOST
  1

  9
$DIMAPOST
  1

  9
$DIMALT
 70
     0
  9
$DIMALTD
 70
     2
  9
$DIMALTF
 40
25.4
  9
$DIMLFAC
 40
1.0
  9
$DIMTOFL
 70
     0
  9
$DIMTVP
 40
0.0
  9
$DIMTIX
 70
     0
  9
$DIMSOXD
 70
     0
  9
$DIMSAH
 70
     0
  9
$DIMBLK1
  1

  9
$DIMBLK2
  1

  9
$DIMSTYLE
  2
Standard
  9
$DIMCLRD
 70
     0
  9
$DIMCLRE
 70
     0
  9
$DIMCLRT
 70
     0
  9
$DIMTFAC
 40
1.0
  9
$DIMGAP
 40
2.0
  9
$DIMJUST
 70
     0
  9
$DIMSD1
 70
     0
  9
$DIMSD2
 70
     0
  9
$DIMTOLJ
 70
     1
  9
$DIMTZIN
 70
     0
  9
$DIMALTZ
 70
     0
  9
$DIMALTTZ
 70
     0
  9
$DIMUPT
 70
     0
  9
$DIMDEC
 70
     2
  9
$DIMTDEC
 70
     4
  9
$DIMALTU
 70
     2
  9
$DIMALTTD
 70
     2
  9
$DIMTXSTY
  7
Standard
  9
$DIMAUNIT
 70
     0
  9
$DIMADEC
 70
     1
  9
$DIMALTRND
 40
0.0
  9
$DIMAZIN
 70
     2
  9
$DIMDSEP
 70
    46
  9
$DIMATFIT
 70
     3
  9
$DIMFRAC
 70
     0
  9
$DIMLDRBLK
  1

  9
$DIMLUNIT
 70
     2
  9
$DIMLWD
 70
    -2
  9
$DIMLWE
 70
    -2
  9
$DIMTMOVE
 70
     0
  9
$DIMFXL
 40
1.0
  9
$DIMFXLON
 70
     0
  9
$DIMJOGANG
 40
0.7853981633974483
  9
$DIMTFILL
 70
     0
  9
$DIMTFILLCLR
 70
     0
  9
$DIMARCSYM
 70
     0
  9
$DIMLTYPE
  6

  9
$DIMLTEX1
  6

  9
$DIMLTEX2
  6

  9
$DIMTXTDIRECTION
 70
     0
  9
$LUNITS
 70
     2
  9
$LUPREC
 70
     4
  9
$SKETCHINC
 40
0.1
  9
$FILLETRAD
 40
0.5
  9
$AUNITS
 70
     0
  9
$AUPREC
 70
     0
  9
$MENU
  1
.
  9
$ELEVATION
 40
0.0
  9
$PELEVATION
 40
0.0
  9
$THICKNESS
 40
0.0
  9
$LIMCHECK
 70
     0
  9
$CHAMFERA
 40
0.5
  9
$CHAMFERB
 40
0.5
  9
$CHAMFERC
 40
1.0
  9
$CHAMFERD
 40
0.0
  9
$SKPOLY
 70
     0
  9
$TDCREATE
 40
2456368.496570023
  9
$TDUCREATE
 40
2456368.454903356
  9
$TDUPDATE
 40
2456368.496570382
  9
$TDUUPDATE
 40
2456368.454903715
  9
$TDINDWG
 40
0.0000000116
  9
$TDUSRTIMER
 40
0.0000000116
  9
$USRTIMER
 70
     1
  9
$ANGBASE
 50
0.0
  9
$ANGDIR
 70
     0
  9
$PDMODE
 70
     0
  9
$PDSIZE
 40
0.0
  9
$PLINEWID
 40
0.0
  9
$SPLFRAME
 70
     0
  9
$SPLINETYPE
 70
     6
  9
$SPLINESEGS
 70
     8
  9
$HANDSEED
  5
290
  9
$SURFTAB1
 70
     6
  9
$SURFTAB2
 70
     6
  9
$SURFTYPE
 70
     6
  9
$SURFU
 70
     6
  9
$SURFV
 70
     6
  9
$UCSBASE
  2

  9
$UCSNAME
  2

  9
$UCSORG
 10
0.0
 20
0.0
 30
0.0
  9
$UCSXDIR
 10
1.0
 20
0.0
 30
0.0
  9
$UCSYDIR
 10
0.0
 20
1.0
 30
0.0
  9
$UCSORTHOREF
  2

  9
$UCSORTHOVIEW
 70
     0
  9
$UCSORGTOP
 10
0.0
 20
0.0
 30
0.0
  9
$UCSORGBOTTOM
 10
0.0
 20
0.0
 30
0.0
  9
$UCSORGLEFT
 10
0.0
 20
0.0
 30
0.0
  9
$UCSORGRIGHT
 10
0.0
 20
0.0
 30
0.0
  9
$UCSORGFRONT
 10
0.0
 20
0.0
 30
0.0
  9
$UCSORGBACK
 10
0.0
 20
0.0
 30
0.0
  9
$PUCSBASE
  2

  9
$PUCSNAME
  2

  9
$PUCSORG
 10
0.0
 20
0.0
 30
0.0
  9
$PUCSXDIR
 10
1.0
 20
0.0
 30
0.0
  9
$PUCSYDIR
 10
0.0
 20
1.0
 30
0.0
  9
$PUCSORTHOREF
  2

  9
$PUCSORTHOVIEW
 70
     0
  9
$PUCSORGTOP
 10
0.0
 20
0.0
 30
0.0
  9
$PUCSORGBOTTOM
 10
0.0
 20
0.0
 30
0.0
  9
$PUCSORGLEFT
 10
0.0
 20
0.0
 30
0.0
  9
$PUCSORGRIGHT
 10
0.0
 20
0.0
 30
0.0
  9
$PUCSORGFRONT
 10
0.0
 20
0.0
 30
0.0
  9
$PUCSORGBACK
 10
0.0
 20
0.0
 30
0.0
  9
$USERI1
 70
     0
  9
$USERI2
 70
     0
  9
$USERI3
 70
     0
  9
$USERI4
 70
     0
  9
$USERI5
 70
     0
  9
$USERR1
 40
0.0
  9
$USERR2
 40
0.0
  9
$USERR3
 40
0.0
  9
$USERR4
 40
0.0
  9
$USERR5
 40
0.0
  9
$WORLDVIEW
 70
     1
  9
$SHADEDGE
 70
     3
  9
$SHADEDIF
 70
    70
  9
$TILEMODE
 70
     1
  9
$MAXACTVP
 70
    64
  9
$PINSBASE
 10
0.0
 20
0.0
 30
0.0
  9
$PLIMCHECK
 70
     0
  9
$PEXTMIN
 10
1.000000000000000E+20
 20
1.000000000000000E+20
 30
1.000000000000000E+20
  9
$PEXTMAX
 10
-1.000000000000000E+20
 20
-1.000000000000000E+20
 30
-1.000000000000000E+20
  9
$PLIMMIN
 10
0.0
 20
0.0
  9
$PLIMMAX
 10
12.0
 20
9.0
  9
$UNITMODE
 70
     0
  9
$VISRETAIN
 70
     1
  9
$PLINEGEN
 70
     0
  9
$PSLTSCALE
 70
     1
  9
$TREEDEPTH
 70
  3020
  9
$CMLSTYLE
  2
Standard
  9
$CMLJUST
 70
     0
  9
$CMLSCALE
 40
1.0
  9
$PROXYGRAPHICS
 70
     1
  9
$MEASUREMENT
 70
     1
  9
$CELWEIGHT
370
    -1
  9
$ENDCAPS
280
     0
  9
$JOINSTYLE
280
     0
  9
$LWDISPLAY
290
     0
  9
$INSUNITS
 70
     4
  9
$HYPERLINKBASE
  1

  9
$STYLESHEET
  1

  9
$XEDIT
290
     1
  9
$CEPSNTYPE
380
     0
  9
$PSTYLEMODE
290
     1
  9
$FINGERPRINTGUID
  2
{B7026761-73D5-47A7-9452-EEA3B6513791}
  9
$VERSIONGUID
  2
{FAEB1C32-E019-11D5-929B-00C0DF256EC4}
  9
$EXTNAMES
290
     1
  9
$PSVPSCALE
 40
0.0
  9
$OLESTARTUP
290
     0
  9
$SORTENTS
280
   127
  9
$INDEXCTL
280
     0
  9
$HIDETEXT
280
     1
  9
$XCLIPFRAME
280
     2
  9
$HALOGAP
280
     0
  9
$OBSCOLOR
 70
   257
  9
$OBSLTYPE
280
     0
  9
$INTERSECTIONDISPLAY
280
     0
  9
$INTERSECTIONCOLOR
 70
   257
  9
$DIMASSOC
280
     2
  9
$PROJECTNAME
  1

  9
$CAMERADISPLAY
290
     0
  9
$LENSLENGTH
 40
50.0
  9
$CAMERAHEIGHT
 40
0.0
  9
$STEPSPERSEC
 40
2.0
  9
$STEPSIZE
 40
6.0
  9
$3DDWFPREC
 40
2.0
  9
$PSOLWIDTH
 40
0.25
  9
$PSOLHEIGHT
 40
4.0
  9
$LOFTANG1
 40
1.570796326794897
  9
$LOFTANG2
 40
1.570796326794897
  9
$LOFTMAG1
 40
0.0
  9
$LOFTMAG2
 40
0.0
  9
$LOFTPARAM
 70
     7
  9
$LOFTNORMALS
280
     1
  9
$LATITUDE
 40
37.795
  9
$LONGITUDE
 40
-122.394
  9
$NORTHDIRECTION
 40
0.0
  9
$TIMEZONE
 70
 -8000
  9
$LIGHTGLYPHDISPLAY
280
     1
  9
$TILEMODELIGHTSYNCH
280
     1
  9
$SOLIDHIST
280
     1
  9
$SHOWHIST
280
     1
  9
$DWFFRAME
280
     2
  9
$DGNFRAME
280
     2
  9
$REALWORLDSCALE
290
     1
  9
$INTERFERECOLOR
 62
   256
  9
$CSHADOW
280
     0
  9
$SHADOWPLANELOCATION
 40
0.0
  0
ENDSEC
  0
SECTION
  2
CLASSES
  0
CLASS
  1
ACDBDICTIONARYWDFLT
  2
AcDbDictionaryWithDefault
  3
ObjectDBX Classes
 90
        0
 91
        4
280
     0
281
     0
  0
CLASS
  1
VISUALSTYLE
  2
AcDbVisualStyle
  3
ObjectDBX Classes
 90
     4095
 91
        4
280
     0
281
     0
  0
CLASS
  1
MATERIAL
  2
AcDbMaterial
  3
ObjectDBX Classes
 90
     1153
 91
        4
280
     0
281
     0
  0
ENDSEC
  0
SECTION
  2
TABLES
  0
TABLE
  2
VPORT
  5
1BE
330
0
100
AcDbSymbolTable
 70
     1
  0
VPORT
  5
1DE
330
1BE
100
AcDbSymbolTableRecord
100
AcDbViewportTableRecord
  2
*Active
 70
     0
 10
0.0
 20
0.0
 11
1.0
 21
1.0
 12
10.42990654205607
 22
4.5
 13
0.0
 23
0.0
 14
0.5
 24
0.5
 15
0.5
 25
0.5
 16
0.0
 26
0.0
 36
1.0
 17
0.0
 27
0.0
 37
0.0
 40
9.0
 41
1.972972972850329
 42
50.0
 43
0.0
 44
0.0
 50
0.0
 51
0.0
 71
     0
 72
   100
 73
     1
 74
     3
 75
     0
 76
     0
 77
     0
 78
     0
281
     0
 65
     1
110
0.0
120
0.0
130
0.0
111
1.0
121
0.0
131
0.0
112
0.0
122
1.0
132
0.0
 79
     0
146
0.0
 60
     3
 61
     5
292
     1
282
     1
141
0.0
142
0.0
 63
   250
  0
ENDTAB
  0
TABLE
  2
LTYPE
  5
1BB
330
0
100
AcDbSymbolTable
 70
    19
  0
LTYPE
  5
1C9
330
1BB
100
AcDbSymbolTableRecord
100
AcDbLinetypeTableRecord
  2
ByBlock
 70
     0
  3

 72
    65
 73
     0
 40
0.0
  0
LTYPE
  5
1CA
330
1BB
100
AcDbSymbolTableRecord
100
AcDbLinetypeTableRecord
  2
ByLayer
 70
     0
  3

 72
    65
 73
     0
 40
0.0
  0
LTYPE
  5
1CB
330
1BB
100
AcDbSymbolTableRecord
100
AcDbLinetypeTableRecord
  2
Continuous
 70
     0
  3
Solid line
 72
    65
 73
     0
 40
0.0
  0
LTYPE
  5
20B
330
1BB
100
AcDbSymbolTableRecord
100
AcDbLinetypeTableRecord
  2
BORDER
 70
     0
  3

 72
    65
 73
     6
 40
42.00000000000001
 49
12.0
 74
     0
 49
-6.0
 74
     0
 49
12.0
 74
     0
 49
-5.95
 74
     0
 49
0.1
 74
     0
 49
-5.95
 74
     0
  0
LTYPE
  5
20C
330
1BB
100
AcDbSymbolTableRecord
100
AcDbLinetypeTableRecord
  2
BORDER2
 70
     0
  3

 72
    65
 73
     6
 40
21.0
 49
6.0
 74
     0
 49
-3.0
 74
     0
 49
6.0
 74
     0
 49
-2.95
 74
     0
 49
0.1
 74
     0
 49
-2.95
 74
     0
  0
LTYPE
  5
20D
330
1BB
100
AcDbSymbolTableRecord
100
AcDbLinetypeTableRecord
  2
BORDERX2
 70
     0
  3

 72
    65
 73
     6
 40
84.0
 49
24.0
 74
     0
 49
-12.0
 74
     0
 49
24.0
 74
     0
 49
-11.95
 74
     0
 49
0.1
 74
     0
 49
-11.95
 74
     0
  0
LTYPE
  5
20E
330
1BB
100
AcDbSymbolTableRecord
100
AcDbLinetypeTableRecord
  2
CENTER
 70
     0
  3

 72
    65
 73
     4
 40
50.0
 49
32.0
 74
     0
 49
-6.0
 74
     0
 49
6.0
 74
     0
 49
-6.0
 74
     0
  0
LTYPE
  5
20F
330
1BB
100
AcDbSymbolTableRecord
100
AcDbLinetypeTableRecord
  2
CENTER2
 70
     0
  3

 72
    65
 73
     4
 40
25.0
 49
16.0
 74
     0
 49
-3.0
 74
     0
 49
3.0
 74
     0
 49
-3.0
 74
     0
  0
LTYPE
  5
210
330
1BB
100
AcDbSymbolTableRecord
100
AcDbLinetypeTableRecord
  2
CENTERX2
 70
     0
  3

 72
    65
 73
     4
 40
100.0
 49
64.0
 74
     0
 49
-12.0
 74
     0
 49
12.0
 74
     0
 49
-12.0
 74
     0
  0
LTYPE
  5
211
330
1BB
100
AcDbSymbolTableRecord
100
AcDbLinetypeTableRecord
  2
DASHDOT
 70
     0
  3

 72
    65
 73
     4
 40
24.0
 49
12.0
 74
     0
 49
-5.95
 74
     0
 49
0.1
 74
     0
 49
-5.95
 74
     0
  0
LTYPE
  5
212
330
1BB
100
AcDbSymbolTableRecord
100
AcDbLinetypeTableRecord
  2
DASHDOT2
 70
     0
  3

 72
    65
 73
     4
 40
12.0
 49
6.0
 74
     0
 49
-2.95
 74
     0
 49
0.1
 74
     0
 49
-2.95
 74
     0
  0
LTYPE
  5
213
330
1BB
100
AcDbSymbolTableRecord
100
AcDbLinetypeTableRecord
  2
DASHDOTX2
 70
     0
  3

 72
    65
 73
     4
 40
48.0
 49
24.0
 74
     0
 49
-11.95
 74
     0
 49
0.1
 74
     0
 49
-11.95
 74
     0
  0
LTYPE
  5
214
330
1BB
100
AcDbSymbolTableRecord
100
AcDbLinetypeTableRecord
  2
DASHED
 70
     0
  3

 72
    65
 73
     2
 40
18.0
 49
12.0
 74
     0
 49
-6.0
 74
     0
  0
LTYPE
  5
215
330
1BB
100
AcDbSymbolTableRecord
100
AcDbLinetypeTableRecord
  2
DASHED2
 70
     0
  3

 72
    65
 73
     2
 40
9.0
 49
6.0
 74
     0
 49
-3.0
 74
     0
  0
LTYPE
  5
216
330
1BB
100
AcDbSymbolTableRecord
100
AcDbLinetypeTableRecord
  2
DASHEDX2
 70
     0
  3

 72
    65
 73
     2
 40
36.0
 49
24.0
 74
     0
 49
-12.0
 74
     0
  0
LTYPE
  5
217
330
1BB
100
AcDbSymbolTableRecord
100
AcDbLinetypeTableRecord
  2
DIVIDE
 70
     0
  3

 72
    65
 73
     6
 40
29.99999999999999
 49
12.0
 74
     0
 49
-5.9
 74
     0
 49
0.15
 74
     0
 49
-5.9
 74
     0
 49
0.15
 74
     0
 49
-5.9
 74
     0
  0
LTYPE
  5
218
330
1BB
100
AcDbSymbolTableRecord
100
AcDbLinetypeTableRecord
  2
DIVIDE2
 70
     0
  3

 72
    65
 73
     6
 40
15.0
 49
6.0
 74
     0
 49
-2.9
 74
     0
 49
0.15
 74
     0
 49
-2.9
 74
     0
 49
0.15
 74
     0
 49
-2.9
 74
     0
  0
LTYPE
  5
219
330
1BB
100
AcDbSymbolTableRecord
100
AcDbLinetypeTableRecord
  2
DIVIDEX2
 70
     0
  3

 72
    65
 73
     6
 40
59.99999999999999
 49
24.0
 74
     0
 49
-11.9
 74
     0
 49
0.15
 74
     0
 49
-11.9
 74
     0
 49
0.15
 74
     0
 49
-11.9
 74
     0
  0
LTYPE
  5
21A
330
1BB
100
AcDbSymbolTableRecord
100
AcDbLinetypeTableRecord
  2
DOT
 70
     0
  3

 72
    65
 73
     2
 40
6.3
 49
0.1
 74
     0
 49
-6.2
 74
     0
  0
LTYPE
  5
21B
330
1BB
100
AcDbSymbolTableRecord
100
AcDbLinetypeTableRecord
  2
DOT2
 70
     0
  3

 72
    65
 73
     2
 40
3.2
 49
0.1
 74
     0
 49
-3.1
 74
     0
  0
LTYPE
  5
21C
330
1BB
100
AcDbSymbolTableRecord
100
AcDbLinetypeTableRecord
  2
DOTX2
 70
     0
  3

 72
    65
 73
     2
 40
12.5
 49
0.1
 74
     0
 49
-12.4
 74
     0
  0
ENDTAB
  0
TABLE
  2
LAYER
  5
1B8
330
0
100
AcDbSymbolTable
 70
     5
  0
LAYER
  5
1C6
330
1B8
100
AcDbSymbolTableRecord
100
AcDbLayerTableRecord
  2
0
 70
     0
 62
     7
420
 16777215
  6
Continuous
370
    25
390
1C5
347
1F3
  0
LAYER
  5
21D
330
1B8
100
AcDbSymbolTableRecord
100
AcDbLayerTableRecord
  2
epure
 70
     1
 62
     1
420
 16711680
  6
Continuous
370
     0
390
1C5
347
1F3
  0
LAYER
  5
21E
330
1B8
100
AcDbSymbolTableRecord
100
AcDbLayerTableRecord
  2
contours
 70
     0
 62
    18
420
        0
  6
Continuous
370
    25
390
1C5
347
1F3
  0
LAYER
  5
21F
330
1B8
100
AcDbSymbolTableRecord
100
AcDbLayerTableRecord
  2
axes
 70
     0
 62
    18
420
        0
  6
CENTER2
370
    18
390
1C5
347
1F3
  0
LAYER
  5
220
330
1B8
100
AcDbSymbolTableRecord
100
AcDbLayerTableRecord
  2
Defpoints
 70
     0
 62
     7
  6
Continuous
290
     0
370
    -3
390
1C5
347
1F3
  0
ENDTAB
  0
TABLE
  2
STYLE
  5
1B9
330
0
100
AcDbSymbolTable
 70
     2
  0
STYLE
  5
1C7
330
1B9
100
AcDbSymbolTableRecord
100
AcDbTextStyleTableRecord
  2
Standard
 70
     0
 40
0.0
 41
1.0
 50
0.0
 71
     0
 42
0.2
  3
txt
  4

  0
STYLE
  5
22D
330
1B9
100
AcDbSymbolTableRecord
100
AcDbTextStyleTableRecord
  2
textstyle0
 70
     0
 40
0.0
 41
1.0
 50
0.0
 71
     0
 42
0.2
  3
arial.ttf
  4

1001
ACAD
1000
Arial
1071
        0
  0
ENDTAB
  0
TABLE
  2
VIEW
  5
1BC
330
0
100
AcDbSymbolTable
 70
     0
  0
ENDTAB
  0
TABLE
  2
UCS
  5
1BD
330
0
100
AcDbSymbolTable
 70
     0
  0
ENDTAB
  0
TABLE
  2
APPID
  5
1BF
330
0
100
AcDbSymbolTable
 70
     2
  0
APPID
  5
1C8
330
1BF
100
AcDbSymbolTableRecord
100
AcDbRegAppTableRecord
  2
ACAD
 70
     0
  0
APPID
  5
1F4
330
1BF
100
AcDbSymbolTableRecord
100
AcDbRegAppTableRecord
  2
QCAD
 70
     0
  0
ENDTAB
  0
TABLE
  2
DIMSTYLE
  5
1C0
330
0
100
AcDbSymbolTable
 70
     2
100
AcDbDimStyleTable
  0
DIMSTYLE
105
1DC
330
1C0
100
AcDbSymbolTableRecord
100
AcDbDimStyleTableRecord
  2
Standard
 70
     0
178
     0
340
1C7
  0
DIMSTYLE
105
20A
102
{ACAD_REACTORS
330
33
330
46
330
59
330
6C
330
7F
330
92
330
A5
330
B8
330
1B5
102
}
330
1C0
100
AcDbSymbolTableRecord
100
AcDbDimStyleTableRecord
  2
QCADDimStyle
 70
     0
 41
8.0
 42
2.0
 44
4.0
 73
     0
 77
     1
140
8.0
147
2.0
178
     0
340
1C7
  0
ENDTAB
  0
TABLE
  2
BLOCK_RECORD
  5
1B7
330
0
100
AcDbSymbolTable
 70
    10
  0
BLOCK_RECORD
  5
1D4
330
1B7
100
AcDbSymbolTableRecord
100
AcDbBlockTableRecord
  2
*Model_Space
340
1D7
 70
     0
280
     1
281
     0
  0
BLOCK_RECORD
  5
1D0
330
1B7
100
AcDbSymbolTableRecord
100
AcDbBlockTableRecord
  2
*Paper_Space
340
1D3
 70
     0
280
     1
281
     0
  0
BLOCK_RECORD
  5
1D8
330
1B7
100
AcDbSymbolTableRecord
100
AcDbBlockTableRecord
  2
*Paper_Space0
340
1DB
 70
     0
280
     1
281
     0
  0
BLOCK_RECORD
  5
221
330
1B7
100
AcDbSymbolTableRecord
100
AcDbBlockTableRecord
  2
*D1
340
0
 70
     0
280
     1
281
     0
  0
BLOCK_RECORD
  5
22E
330
1B7
100
AcDbSymbolTableRecord
100
AcDbBlockTableRecord
  2
*D2
340
0
 70
     0
280
     1
281
     0
  0
BLOCK_RECORD
  5
23A
330
1B7
100
AcDbSymbolTableRecord
100
AcDbBlockTableRecord
  2
*D3
340
0
 70
     0
280
     1
281
     0
  0
BLOCK_RECORD
  5
246
330
1B7
100
AcDbSymbolTableRecord
100
AcDbBlockTableRecord
  2
*D4
340
0
 70
     0
280
     1
281
     0
  0
BLOCK_RECORD
  5
252
330
1B7
100
AcDbSymbolTableRecord
100
AcDbBlockTableRecord
  2
*D5
340
0
 70
     0
280
     1
281
     0
  0
BLOCK_RECORD
  5
25E
330
1B7
100
AcDbSymbolTableRecord
100
AcDbBlockTableRecord
  2
*D6
340
0
 70
     0
280
     1
281
     0
  0
BLOCK_RECORD
  5
26A
330
1B7
100
AcDbSymbolTableRecord
100
AcDbBlockTableRecord
  2
*D7
340
0
 70
     0
280
     1
281
     0
  0
BLOCK_RECORD
  5
276
330
1B7
100
AcDbSymbolTableRecord
100
AcDbBlockTableRecord
  2
*D8
340
0
 70
     0
280
     1
281
     0
  0
BLOCK_RECORD
  5
282
330
1B7
100
AcDbSymbolTableRecord
100
AcDbBlockTableRecord
  2
*D9
340
0
 70
     0
280
     1
281
     0
  0
ENDTAB
  0
ENDSEC
  0
SECTION
  2
BLOCKS
  0
BLOCK
  5
1D5
330
1D4
100
AcDbEntity
  8
0
100
AcDbBlockBegin
  2
*Model_Space
 70
     0
 10
0.0
 20
0.0
 30
0.0
  3
*Model_Space
  1

  0
ENDBLK
  5
1D6
330
1D4
100
AcDbEntity
  8
0
100
AcDbBlockEnd
  0
BLOCK
  5
1D1
330
1D0
100
AcDbEntity
 67
     1
  8
0
100
AcDbBlockBegin
  2
*Paper_Space
 70
     0
 10
0.0
 20
0.0
 30
0.0
  3
*Paper_Space
  1

  0
ENDBLK
  5
1D2
330
1D0
100
AcDbEntity
 67
     1
  8
0
100
AcDbBlockEnd
  0
BLOCK
  5
1D9
330
1D8
100
AcDbEntity
  8
0
100
AcDbBlockBegin
  2
*Paper_Space0
 70
     0
 10
0.0
 20
0.0
 30
0.0
  3
*Paper_Space0
  1

  0
ENDBLK
  5
1DA
330
1D8
100
AcDbEntity
  8
0
100
AcDbBlockEnd
  0
BLOCK
  5
22B
330
221
100
AcDbEntity
  8
0
100
AcDbBlockBegin
  2
*D1
 70
     1
 10
0.0
 20
0.0
 30
0.0
  3
*D1
  1

  0
LINE
  5
222
330
221
100
AcDbEntity
  8
contours
 62
     0
370
    -2
100
AcDbLine
 10
-15.0
 20
18.75999999999999
 30
0.0
 11
-15.0
 21
3.91185185185185
 31
0.0
  0
LINE
  5
223
330
221
100
AcDbEntity
  8
contours
 62
     0
370
    -2
100
AcDbLine
 10
15.0
 20
18.76
 30
0.0
 11
15.0
 21
3.91185185185185
 31
0.0
  0
LINE
  5
224
330
221
100
AcDbEntity
  8
contours
 62
     0
370
    -2
100
AcDbLine
 10
-7.0
 20
7.91185185185185
 30
0.0
 11
7.0
 21
7.91185185185185
 31
0.0
  0
SOLID
  5
225
330
221
100
AcDbEntity
  8
contours
 62
     0
100
AcDbTrace
 10
-7.0
 20
9.245185185185184
 30
0.0
 11
-7.0
 21
6.578518518518517
 31
0.0
 12
-15.0
 22
7.91185185185185
 32
0.0
 13
-15.0
 23
7.91185185185185
 33
0.0
  0
SOLID
  5
226
330
221
100
AcDbEntity
  8
contours
 62
     0
100
AcDbTrace
 10
7.0
 20
6.578518518518517
 30
0.0
 11
7.0
 21
9.245185185185184
 31
0.0
 12
15.0
 22
7.91185185185185
 32
0.0
 13
15.0
 23
7.91185185185185
 33
0.0
  0
MTEXT
  5
227
330
221
100
AcDbEntity
  8
contours
 62
     0
100
AcDbMText
 10
0.0
 20
13.91185185185185
 30
0.0
 40
8.0
 41
0.0
 46
0.0
 71
     5
 72
     1
  1
\A1;30
 73
     1
 44
1.0
  0
POINT
  5
228
330
221
100
AcDbEntity
  8
Defpoints
 62
     0
100
AcDbPoint
 10
-15.0
 20
20.75999999999999
 30
0.0
  0
POINT
  5
229
330
221
100
AcDbEntity
  8
Defpoints
 62
     0
100
AcDbPoint
 10
15.0
 20
20.76
 30
0.0
  0
POINT
  5
22A
330
221
100
AcDbEntity
  8
Defpoints
 62
     0
100
AcDbPoint
 10
15.0
 20
7.91185185185185
 30
0.0
  0
ENDBLK
  5
22C
330
221
100
AcDbEntity
  8
0
100
AcDbBlockEnd
  0
BLOCK
  5
238
330
22E
100
AcDbEntity
  8
0
100
AcDbBlockBegin
  2
*D2
 70
     1
 10
0.0
 20
0.0
 30
0.0
  3
*D2
  1

  0
LINE
  5
22F
330
22E
100
AcDbEntity
  8
contours
 62
     0
370
    -2
100
AcDbLine
 10
-15.0
 20
-41.24000000000001
 30
0.0
 11
-15.0
 21
-56.08814814814815
 31
0.0
  0
LINE
  5
230
330
22E
100
AcDbEntity
  8
contours
 62
     0
370
    -2
100
AcDbLine
 10
15.0
 20
-41.24
 30
0.0
 11
15.0
 21
-56.08814814814815
 31
0.0
  0
LINE
  5
231
330
22E
100
AcDbEntity
  8
contours
 62
     0
370
    -2
100
AcDbLine
 10
-7.0
 20
-52.08814814814815
 30
0.0
 11
7.0
 21
-52.08814814814815
 31
0.0
  0
SOLID
  5
232
330
22E
100
AcDbEntity
  8
contours
 62
     0
100
AcDbTrace
 10
-7.0
 20
-50.75481481481481
 30
0.0
 11
-7.0
 21
-53.42148148148149
 31
0.0
 12
-15.0
 22
-52.08814814814815
 32
0.0
 13
-15.0
 23
-52.08814814814815
 33
0.0
  0
SOLID
  5
233
330
22E
100
AcDbEntity
  8
contours
 62
     0
100
AcDbTrace
 10
7.0
 20
-53.42148148148149
 30
0.0
 11
7.0
 21
-50.75481481481481
 31
0.0
 12
15.0
 22
-52.08814814814815
 32
0.0
 13
15.0
 23
-52.08814814814815
 33
0.0
  0
MTEXT
  5
234
330
22E
100
AcDbEntity
  8
contours
 62
     0
100
AcDbMText
 10
0.0
 20
-46.08814814814815
 30
0.0
 40
8.0
 41
0.0
 46
0.0
 71
     5
 72
     1
  1
\A1;30
 73
     1
 44
1.0
  0
POINT
  5
235
330
22E
100
AcDbEntity
  8
Defpoints
 62
     0
100
AcDbPoint
 10
-15.0
 20
-39.24000000000001
 30
0.0
  0
POINT
  5
236
330
22E
100
AcDbEntity
  8
Defpoints
 62
     0
100
AcDbPoint
 10
15.0
 20
-39.24
 30
0.0
  0
POINT
  5
237
330
22E
100
AcDbEntity
  8
Defpoints
 62
     0
100
AcDbPoint
 10
15.0
 20
-52.08814814814815
 30
0.0
  0
ENDBLK
  5
239
330
22E
100
AcDbEntity
  8
0
100
AcDbBlockEnd
  0
BLOCK
  5
244
330
23A
100
AcDbEntity
  8
0
100
AcDbBlockBegin
  2
*D3
 70
     1
 10
0.0
 20
0.0
 30
0.0
  3
*D3
  1

  0
LINE
  5
23B
330
23A
100
AcDbEntity
  8
contours
 62
     0
370
    -2
100
AcDbLine
 10
-15.0
 20
-101.24
 30
0.0
 11
-15.0
 21
-116.0881481481482
 31
0.0
  0
LINE
  5
23C
330
23A
100
AcDbEntity
  8
contours
 62
     0
370
    -2
100
AcDbLine
 10
15.0
 20
-101.24
 30
0.0
 11
15.0
 21
-116.0881481481482
 31
0.0
  0
LINE
  5
23D
330
23A
100
AcDbEntity
  8
contours
 62
     0
370
    -2
100
AcDbLine
 10
-7.0
 20
-112.0881481481482
 30
0.0
 11
7.0
 21
-112.0881481481482
 31
0.0
  0
SOLID
  5
23E
330
23A
100
AcDbEntity
  8
contours
 62
     0
100
AcDbTrace
 10
-7.0
 20
-110.7548148148148
 30
0.0
 11
-7.0
 21
-113.4214814814815
 31
0.0
 12
-15.0
 22
-112.0881481481482
 32
0.0
 13
-15.0
 23
-112.0881481481482
 33
0.0
  0
SOLID
  5
23F
330
23A
100
AcDbEntity
  8
contours
 62
     0
100
AcDbTrace
 10
7.0
 20
-113.4214814814815
 30
0.0
 11
7.0
 21
-110.7548148148148
 31
0.0
 12
15.0
 22
-112.0881481481482
 32
0.0
 13
15.0
 23
-112.0881481481482
 33
0.0
  0
MTEXT
  5
240
330
23A
100
AcDbEntity
  8
contours
 62
     0
100
AcDbMText
 10
0.0
 20
-106.0881481481482
 30
0.0
 40
8.0
 41
0.0
 46
0.0
 71
     5
 72
     1
  1
\A1;30
 73
     1
 44
1.0
  0
POINT
  5
241
330
23A
100
AcDbEntity
  8
Defpoints
 62
     0
100
AcDbPoint
 10
-15.0
 20
-99.24000000000001
 30
0.0
  0
POINT
  5
242
330
23A
100
AcDbEntity
  8
Defpoints
 62
     0
100
AcDbPoint
 10
15.0
 20
-99.24000000000001
 30
0.0
  0
POINT
  5
243
330
23A
100
AcDbEntity
  8
Defpoints
 62
     0
100
AcDbPoint
 10
15.0
 20
-112.0881481481482
 30
0.0
  0
ENDBLK
  5
245
330
23A
100
AcDbEntity
  8
0
100
AcDbBlockEnd
  0
BLOCK
  5
250
330
246
100
AcDbEntity
  8
0
100
AcDbBlockBegin
  2
*D4
 70
     1
 10
0.0
 20
0.0
 30
0.0
  3
*D4
  1

  0
LINE
  5
247
330
246
100
AcDbEntity
  8
contours
 62
     0
370
    -2
100
AcDbLine
 10
-15.0
 20
-161.24
 30
0.0
 11
-15.0
 21
-176.0881481481482
 31
0.0
  0
LINE
  5
248
330
246
100
AcDbEntity
  8
contours
 62
     0
370
    -2
100
AcDbLine
 10
15.0
 20
-161.24
 30
0.0
 11
15.0
 21
-176.0881481481482
 31
0.0
  0
LINE
  5
249
330
246
100
AcDbEntity
  8
contours
 62
     0
370
    -2
100
AcDbLine
 10
-7.0
 20
-172.0881481481482
 30
0.0
 11
7.0
 21
-172.0881481481482
 31
0.0
  0
SOLID
  5
24A
330
246
100
AcDbEntity
  8
contours
 62
     0
100
AcDbTrace
 10
-7.0
 20
-170.7548148148148
 30
0.0
 11
-7.0
 21
-173.4214814814815
 31
0.0
 12
-15.0
 22
-172.0881481481482
 32
0.0
 13
-15.0
 23
-172.0881481481482
 33
0.0
  0
SOLID
  5
24B
330
246
100
AcDbEntity
  8
contours
 62
     0
100
AcDbTrace
 10
7.0
 20
-173.4214814814815
 30
0.0
 11
7.0
 21
-170.7548148148148
 31
0.0
 12
15.0
 22
-172.0881481481482
 32
0.0
 13
15.0
 23
-172.0881481481482
 33
0.0
  0
MTEXT
  5
24C
330
246
100
AcDbEntity
  8
contours
 62
     0
100
AcDbMText
 10
0.0
 20
-166.0881481481482
 30
0.0
 40
8.0
 41
0.0
 46
0.0
 71
     5
 72
     1
  1
\A1;30
 73
     1
 44
1.0
  0
POINT
  5
24D
330
246
100
AcDbEntity
  8
Defpoints
 62
     0
100
AcDbPoint
 10
-15.0
 20
-159.24
 30
0.0
  0
POINT
  5
24E
330
246
100
AcDbEntity
  8
Defpoints
 62
     0
100
AcDbPoint
 10
15.0
 20
-159.24
 30
0.0
  0
POINT
  5
24F
330
246
100
AcDbEntity
  8
Defpoints
 62
     0
100
AcDbPoint
 10
15.0
 20
-172.0881481481482
 30
0.0
  0
ENDBLK
  5
251
330
246
100
AcDbEntity
  8
0
100
AcDbBlockEnd
  0
BLOCK
  5
25C
330
252
100
AcDbEntity
  8
0
100
AcDbBlockBegin
  2
*D5
 70
     1
 10
0.0
 20
0.0
 30
0.0
  3
*D5
  1

  0
LINE
  5
253
330
252
100
AcDbEntity
  8
contours
 62
     0
370
    -2
100
AcDbLine
 10
75.0
 20
18.75999999999999
 30
0.0
 11
75.0
 21
3.91185185185185
 31
0.0
  0
LINE
  5
254
330
252
100
AcDbEntity
  8
contours
 62
     0
370
    -2
100
AcDbLine
 10
105.0
 20
18.75999999999999
 30
0.0
 11
105.0
 21
3.91185185185185
 31
0.0
  0
LINE
  5
255
330
252
100
AcDbEntity
  8
contours
 62
     0
370
    -2
100
AcDbLine
 10
83.0
 20
7.91185185185185
 30
0.0
 11
97.0
 21
7.91185185185185
 31
0.0
  0
SOLID
  5
256
330
252
100
AcDbEntity
  8
contours
 62
     0
100
AcDbTrace
 10
83.0
 20
9.245185185185184
 30
0.0
 11
83.0
 21
6.578518518518517
 31
0.0
 12
75.0
 22
7.91185185185185
 32
0.0
 13
75.0
 23
7.91185185185185
 33
0.0
  0
SOLID
  5
257
330
252
100
AcDbEntity
  8
contours
 62
     0
100
AcDbTrace
 10
97.0
 20
6.578518518518517
 30
0.0
 11
97.0
 21
9.245185185185184
 31
0.0
 12
105.0
 22
7.91185185185185
 32
0.0
 13
105.0
 23
7.91185185185185
 33
0.0
  0
MTEXT
  5
258
330
252
100
AcDbEntity
  8
contours
 62
     0
100
AcDbMText
 10
90.0
 20
13.91185185185185
 30
0.0
 40
8.0
 41
0.0
 46
0.0
 71
     5
 72
     1
  1
\A1;30
 73
     1
 44
1.0
  0
POINT
  5
259
330
252
100
AcDbEntity
  8
Defpoints
 62
     0
100
AcDbPoint
 10
75.0
 20
20.75999999999999
 30
0.0
  0
POINT
  5
25A
330
252
100
AcDbEntity
  8
Defpoints
 62
     0
100
AcDbPoint
 10
105.0
 20
20.75999999999999
 30
0.0
  0
POINT
  5
25B
330
252
100
AcDbEntity
  8
Defpoints
 62
     0
100
AcDbPoint
 10
105.0
 20
7.91185185185185
 30
0.0
  0
ENDBLK
  5
25D
330
252
100
AcDbEntity
  8
0
100
AcDbBlockEnd
  0
BLOCK
  5
268
330
25E
100
AcDbEntity
  8
0
100
AcDbBlockBegin
  2
*D6
 70
     1
 10
0.0
 20
0.0
 30
0.0
  3
*D6
  1

  0
LINE
  5
25F
330
25E
100
AcDbEntity
  8
contours
 62
     0
370
    -2
100
AcDbLine
 10
75.0
 20
-41.24000000000001
 30
0.0
 11
75.0
 21
-56.08814814814815
 31
0.0
  0
LINE
  5
260
330
25E
100
AcDbEntity
  8
contours
 62
     0
370
    -2
100
AcDbLine
 10
105.0
 20
-41.24000000000001
 30
0.0
 11
105.0
 21
-56.08814814814815
 31
0.0
  0
LINE
  5
261
330
25E
100
AcDbEntity
  8
contours
 62
     0
370
    -2
100
AcDbLine
 10
83.0
 20
-52.08814814814815
 30
0.0
 11
97.0
 21
-52.08814814814815
 31
0.0
  0
SOLID
  5
262
330
25E
100
AcDbEntity
  8
contours
 62
     0
100
AcDbTrace
 10
83.0
 20
-50.75481481481481
 30
0.0
 11
83.0
 21
-53.42148148148149
 31
0.0
 12
75.0
 22
-52.08814814814815
 32
0.0
 13
75.0
 23
-52.08814814814815
 33
0.0
  0
SOLID
  5
263
330
25E
100
AcDbEntity
  8
contours
 62
     0
100
AcDbTrace
 10
97.0
 20
-53.42148148148149
 30
0.0
 11
97.0
 21
-50.75481481481481
 31
0.0
 12
105.0
 22
-52.08814814814815
 32
0.0
 13
105.0
 23
-52.08814814814815
 33
0.0
  0
MTEXT
  5
264
330
25E
100
AcDbEntity
  8
contours
 62
     0
100
AcDbMText
 10
90.0
 20
-46.08814814814815
 30
0.0
 40
8.0
 41
0.0
 46
0.0
 71
     5
 72
     1
  1
\A1;30
 73
     1
 44
1.0
  0
POINT
  5
265
330
25E
100
AcDbEntity
  8
Defpoints
 62
     0
100
AcDbPoint
 10
75.0
 20
-39.24000000000001
 30
0.0
  0
POINT
  5
266
330
25E
100
AcDbEntity
  8
Defpoints
 62
     0
100
AcDbPoint
 10
105.0
 20
-39.24000000000001
 30
0.0
  0
POINT
  5
267
330
25E
100
AcDbEntity
  8
Defpoints
 62
     0
100
AcDbPoint
 10
105.0
 20
-52.08814814814815
 30
0.0
  0
ENDBLK
  5
269
330
25E
100
AcDbEntity
  8
0
100
AcDbBlockEnd
  0
BLOCK
  5
274
330
26A
100
AcDbEntity
  8
0
100
AcDbBlockBegin
  2
*D7
 70
     1
 10
0.0
 20
0.0
 30
0.0
  3
*D7
  1

  0
LINE
  5
26B
330
26A
100
AcDbEntity
  8
contours
 62
     0
370
    -2
100
AcDbLine
 10
75.0
 20
-101.24
 30
0.0
 11
75.0
 21
-116.0881481481482
 31
0.0
  0
LINE
  5
26C
330
26A
100
AcDbEntity
  8
contours
 62
     0
370
    -2
100
AcDbLine
 10
105.0
 20
-101.24
 30
0.0
 11
105.0
 21
-116.0881481481482
 31
0.0
  0
LINE
  5
26D
330
26A
100
AcDbEntity
  8
contours
 62
     0
370
    -2
100
AcDbLine
 10
83.0
 20
-112.0881481481482
 30
0.0
 11
97.0
 21
-112.0881481481482
 31
0.0
  0
SOLID
  5
26E
330
26A
100
AcDbEntity
  8
contours
 62
     0
100
AcDbTrace
 10
83.0
 20
-110.7548148148148
 30
0.0
 11
83.0
 21
-113.4214814814815
 31
0.0
 12
75.0
 22
-112.0881481481482
 32
0.0
 13
75.0
 23
-112.0881481481482
 33
0.0
  0
SOLID
  5
26F
330
26A
100
AcDbEntity
  8
contours
 62
     0
100
AcDbTrace
 10
97.0
 20
-113.4214814814815
 30
0.0
 11
97.0
 21
-110.7548148148148
 31
0.0
 12
105.0
 22
-112.0881481481482
 32
0.0
 13
105.0
 23
-112.0881481481482
 33
0.0
  0
MTEXT
  5
270
330
26A
100
AcDbEntity
  8
contours
 62
     0
100
AcDbMText
 10
90.0
 20
-106.0881481481482
 30
0.0
 40
8.0
 41
0.0
 46
0.0
 71
     5
 72
     1
  1
\A1;30
 73
     1
 44
1.0
  0
POINT
  5
271
330
26A
100
AcDbEntity
  8
Defpoints
 62
     0
100
AcDbPoint
 10
75.0
 20
-99.24000000000001
 30
0.0
  0
POINT
  5
272
330
26A
100
AcDbEntity
  8
Defpoints
 62
     0
100
AcDbPoint
 10
105.0
 20
-99.24000000000001
 30
0.0
  0
POINT
  5
273
330
26A
100
AcDbEntity
  8
Defpoints
 62
     0
100
AcDbPoint
 10
105.0
 20
-112.0881481481482
 30
0.0
  0
ENDBLK
  5
275
330
26A
100
AcDbEntity
  8
0
100
AcDbBlockEnd
  0
BLOCK
  5
280
330
276
100
AcDbEntity
  8
0
100
AcDbBlockBegin
  2
*D8
 70
     1
 10
0.0
 20
0.0
 30
0.0
  3
*D8
  1

  0
LINE
  5
277
330
276
100
AcDbEntity
  8
contours
 62
     0
370
    -2
100
AcDbLine
 10
75.0
 20
-161.24
 30
0.0
 11
75.0
 21
-176.0881481481482
 31
0.0
  0
LINE
  5
278
330
276
100
AcDbEntity
  8
contours
 62
     0
370
    -2
100
AcDbLine
 10
105.0
 20
-161.24
 30
0.0
 11
105.0
 21
-176.0881481481482
 31
0.0
  0
LINE
  5
279
330
276
100
AcDbEntity
  8
contours
 62
     0
370
    -2
100
AcDbLine
 10
83.0
 20
-172.0881481481482
 30
0.0
 11
97.0
 21
-172.0881481481482
 31
0.0
  0
SOLID
  5
27A
330
276
100
AcDbEntity
  8
contours
 62
     0
100
AcDbTrace
 10
83.0
 20
-170.7548148148148
 30
0.0
 11
83.0
 21
-173.4214814814815
 31
0.0
 12
75.0
 22
-172.0881481481482
 32
0.0
 13
75.0
 23
-172.0881481481482
 33
0.0
  0
SOLID
  5
27B
330
276
100
AcDbEntity
  8
contours
 62
     0
100
AcDbTrace
 10
97.0
 20
-173.4214814814815
 30
0.0
 11
97.0
 21
-170.7548148148148
 31
0.0
 12
105.0
 22
-172.0881481481482
 32
0.0
 13
105.0
 23
-172.0881481481482
 33
0.0
  0
MTEXT
  5
27C
330
276
100
AcDbEntity
  8
contours
 62
     0
100
AcDbMText
 10
90.0
 20
-166.0881481481482
 30
0.0
 40
8.0
 41
0.0
 46
0.0
 71
     5
 72
     1
  1
\A1;30
 73
     1
 44
1.0
  0
POINT
  5
27D
330
276
100
AcDbEntity
  8
Defpoints
 62
     0
100
AcDbPoint
 10
75.0
 20
-159.24
 30
0.0
  0
POINT
  5
27E
330
276
100
AcDbEntity
  8
Defpoints
 62
     0
100
AcDbPoint
 10
105.0
 20
-159.24
 30
0.0
  0
POINT
  5
27F
330
276
100
AcDbEntity
  8
Defpoints
 62
     0
100
AcDbPoint
 10
105.0
 20
-172.0881481481482
 30
0.0
  0
ENDBLK
  5
281
330
276
100
AcDbEntity
  8
0
100
AcDbBlockEnd
  0
BLOCK
  5
28C
330
282
100
AcDbEntity
  8
0
100
AcDbBlockBegin
  2
*D9
 70
     1
 10
0.0
 20
0.0
 30
0.0
  3
*D9
  1

  0
LINE
  5
283
330
282
100
AcDbEntity
  8
contours
 62
     0
370
    -2
100
AcDbLine
 10
21.43886415446252
 20
10.63374558879851
 30
0.0
 11
25.73144025743753
 21
3.882909314664179
 31
0.0
  0
LINE
  5
284
330
282
100
AcDbEntity
  8
contours
 62
     0
370
    -2
100
AcDbLine
 10
8.561135845537478
 20
30.88625441120149
 30
0.0
 11
4.268559742562466
 21
37.63709068533582
 31
0.0
  0
MTEXT
  5
285
330
282
100
AcDbEntity
  8
contours
 62
     0
100
AcDbMText
 10
11.46681753600001
 20
36.99655526399999
 30
0.0
 40
8.0
 41
0.0
 46
0.0
 71
     5
 72
     1
  1
\A1;%%c8
 11
0.5365720128718766
 21
-0.8438545342667909
 31
0.0
 73
     1
 44
1.0
  0
SOLID
  5
286
330
282
100
AcDbEntity
  8
contours
 62
     0
100
AcDbTrace
 10
7.435996466515091
 20
30.17082506070566
 30
0.0
 11
9.686275224559866
 21
31.60168376169733
 31
0.0
 12
12.85371194851249
 22
24.13541813706716
 32
0.0
 13
12.85371194851249
 23
24.13541813706716
 33
0.0
  0
SOLID
  5
287
330
282
100
AcDbEntity
  8
contours
 62
     0
100
AcDbTrace
 10
22.56400353348491
 20
11.34917493929434
 30
0.0
 11
20.31372477544013
 21
9.91831623830267
 31
0.0
 12
17.14628805148751
 22
17.38458186293283
 32
0.0
 13
17.14628805148751
 23
17.38458186293283
 33
0.0
  0
LINE
  5
288
330
282
100
AcDbEntity
  8
contours
 62
     0
370
    -2
100
AcDbLine
 10
14.91
 20
20.76
 30
0.0
 11
15.09
 21
20.76
 31
0.0
  0
LINE
  5
289
330
282
100
AcDbEntity
  8
contours
 62
     0
370
    -2
100
AcDbLine
 10
15.0
 20
20.67
 30
0.0
 11
15.0
 21
20.85
 31
0.0
  0
POINT
  5
28A
330
282
100
AcDbEntity
  8
Defpoints
 62
     0
100
AcDbPoint
 10
17.14628805148751
 20
17.38458186293283
 30
0.0
  0
POINT
  5
28B
330
282
100
AcDbEntity
  8
Defpoints
 62
     0
100
AcDbPoint
 10
12.85371194851249
 20
24.13541813706716
 30
0.0
  0
ENDBLK
  5
28D
330
282
100
AcDbEntity
  8
0
100
AcDbBlockEnd
  0
ENDSEC
  0
SECTION
  2
ENTITIES
  0
LINE
  5
1C
330
1D4
100
AcDbEntity
  8
epure
100
AcDbLine
 10
-50.0
 20
0.0
 30
0.0
 11
50.0
 21
0.0
 31
0.0
  0
LINE
  5
1D
330
1D4
100
AcDbEntity
  8
epure
100
AcDbLine
 10
35.0
 20
-50.0
 30
0.0
 11
35.0
 21
50.0
 31
0.0
  0
LINE
  5
1E
330
1D4
100
AcDbEntity
  8
epure
100
AcDbLine
 10
-35.0
 20
-50.0
 30
0.0
 11
-35.0
 21
50.0
 31
0.0
  0
LINE
  5
1F
330
1D4
100
AcDbEntity
  8
epure
100
AcDbLine
 10
-50.0
 20
50.0
 30
0.0
 11
50.0
 21
50.0
 31
0.0
  0
ARC
  5
20
330
1D4
100
AcDbEntity
  8
contours
100
AcDbCircle
 10
0.0
 20
-302.7838172690212
 30
0.0
 40
304.8
100
AcDbArc
 50
83.4062150086055
 51
96.59378499139451
  0
ARC
  5
21
330
1D4
100
AcDbEntity
  8
contours
100
AcDbCircle
 10
-35.0
 20
20.76
 30
0.0
 40
12.0
100
AcDbArc
 50
270.0
 51
90.0
  0
LINE
  5
22
330
1D4
100
AcDbEntity
  8
epure
100
AcDbLine
 10
-34.99999999999999
 20
-49.99999999999999
 30
0.0
 11
-35.0
 21
38.00000000000001
 31
0.0
  0
LINE
  5
23
330
1D4
100
AcDbEntity
  8
epure
100
AcDbLine
 10
35.00000000000001
 20
-49.99999999999999
 30
0.0
 11
35.0
 21
37.99999999999998
 31
0.0
  0
ARC
  5
24
330
1D4
100
AcDbEntity
  8
contours
100
AcDbCircle
 10
35.0
 20
20.76
 30
0.0
 40
12.0
100
AcDbArc
 50
89.99999999999999
 51
270.0
  0
LINE
  5
25
330
1D4
100
AcDbEntity
  8
contours
100
AcDbLine
 10
-34.99999999999959
 20
0.0
 30
0.0
 11
-35.0
 21
8.759999999999991
 31
0.0
  0
LINE
  5
26
330
1D4
100
AcDbEntity
  8
contours
100
AcDbLine
 10
-35.0
 20
32.76000000000001
 30
0.0
 11
-35.0
 21
37.99999999999999
 31
0.0
  0
LINE
  5
27
330
1D4
100
AcDbEntity
  8
contours
100
AcDbLine
 10
-23.0
 20
49.99999999999999
 30
0.0
 11
23.0
 21
50.0
 31
0.0
  0
LINE
  5
28
330
1D4
100
AcDbEntity
  8
contours
100
AcDbLine
 10
35.0
 20
38.00000000000001
 30
0.0
 11
35.0
 21
32.76000000000001
 31
0.0
  0
LINE
  5
29
330
1D4
100
AcDbEntity
  8
contours
100
AcDbLine
 10
35.0
 20
8.759999999999991
 30
0.0
 11
35.0
 21
-0.0000000000000355
 31
0.0
  0
ARC
  5
2A
330
1D4
100
AcDbEntity
  8
contours
100
AcDbCircle
 10
-23.0
 20
38.0
 30
0.0
 40
12.0
100
AcDbArc
 50
90.0
 51
180.0
  0
ARC
  5
2B
330
1D4
100
AcDbEntity
  8
contours
100
AcDbCircle
 10
23.0
 20
37.99999999999999
 30
0.0
 40
12.0
100
AcDbArc
 50
0.0
 51
90.0
  0
LINE
  5
2C
330
1D4
100
AcDbEntity
  8
axes
100
AcDbLine
 10
-35.0
 20
20.76
 30
0.0
 11
35.0
 21
20.76
 31
0.0
  0
LINE
  5
2D
330
1D4
100
AcDbEntity
  8
axes
100
AcDbLine
 10
-15.0
 20
10.76
 30
0.0
 11
-15.0
 21
30.76
 31
0.0
  0
LINE
  5
2F
330
1D4
100
AcDbEntity
  8
axes
100
AcDbLine
 10
15.0
 20
10.76
 30
0.0
 11
15.0
 21
30.76
 31
0.0
  0
CIRCLE
  5
30
330
1D4
100
AcDbEntity
  8
contours
100
AcDbCircle
 10
-15.0
 20
20.76
 30
0.0
 40
4.0
  0
CIRCLE
  5
31
330
1D4
100
AcDbEntity
  8
contours
100
AcDbCircle
 10
15.0
 20
20.76
 30
0.0
 40
4.0
  0
DIMENSION
  5
33
330
1D4
100
AcDbEntity
  8
contours
100
AcDbDimension
280
     0
  2
*D1
 10
15.0
 20
7.91185185185185
 30
0.0
 11
0.0
 21
13.91185185185185
 31
0.0
 70
    32
 71
     5
 42
30.0
 73
     0
 74
     0
 75
     0
  3
QCADDimStyle
100
AcDbAlignedDimension
 13
-15.0
 23
20.75999999999999
 33
0.0
 14
15.0
 24
20.76
 34
0.0
100
AcDbRotatedDimension
1001
ACAD
1000
DSTYLE
1002
{
1070
   178
1070
     0
1070
   177
1070
     0
1070
   176
1070
     0
1070
   279
1070
     2
1070
   179
1070
     1
1070
    41
1040
8.0
1070
    79
1070
     2
1070
   271
1070
     2
1070
    44
1040
4.0
1070
    42
1040
2.0
1070
   147
1040
2.0
1070
   140
1040
8.0
1070
    78
1070
     8
1002
}
  0
TEXT
  5
35
330
1D4
100
AcDbEntity
  8
contours
100
AcDbText
 10
-32.39757778013721
 20
59.56937585454541
 30
0.0
 40
5.0
  1
Cale Radius 12 pouces
  7
textstyle0
 11
-32.39757778013721
 21
58.08983039999995
 31
0.0
100
AcDbText
 73
     1
  0
ARC
  5
36
330
1D4
100
AcDbEntity
  8
contours
100
AcDbCircle
 10
-23.0
 20
37.99999999999999
 30
0.0
 40
12.0
100
AcDbArc
 50
90.00000000000001
 51
180.0
  0
ARC
  5
38
330
1D4
100
AcDbEntity
  8
contours
100
AcDbCircle
 10
23.0
 20
38.00000000000001
 30
0.0
 40
12.0
100
AcDbArc
 50
0.0
 51
90.0
  0
LINE
  5
39
330
1D4
100
AcDbEntity
  8
contours
100
AcDbLine
 10
-34.99999999999959
 20
-60.0
 30
0.0
 11
-35.0
 21
-51.24000000000001
 31
0.0
  0
LINE
  5
3A
330
1D4
100
AcDbEntity
  8
contours
100
AcDbLine
 10
-35.0
 20
-27.23999999999999
 30
0.0
 11
-35.0
 21
-22.00000000000001
 31
0.0
  0
LINE
  5
3B
330
1D4
100
AcDbEntity
  8
contours
100
AcDbLine
 10
-23.0
 20
-10.00000000000001
 30
0.0
 11
23.0
 21
-10.0
 31
0.0
  0
LINE
  5
3C
330
1D4
100
AcDbEntity
  8
contours
100
AcDbLine
 10
35.0
 20
-21.99999999999999
 30
0.0
 11
35.0
 21
-27.23999999999999
 31
0.0
  0
LINE
  5
3D
330
1D4
100
AcDbEntity
  8
contours
100
AcDbLine
 10
35.0
 20
-51.24000000000001
 30
0.0
 11
35.0
 21
-60.00000000000004
 31
0.0
  0
ARC
  5
3E
330
1D4
100
AcDbEntity
  8
contours
100
AcDbCircle
 10
-23.0
 20
-22.0
 30
0.0
 40
12.0
100
AcDbArc
 50
90.0
 51
180.0
  0
ARC
  5
3F
330
1D4
100
AcDbEntity
  8
contours
100
AcDbCircle
 10
23.0
 20
-22.00000000000001
 30
0.0
 40
12.0
100
AcDbArc
 50
0.0
 51
90.0
  0
LINE
  5
40
330
1D4
100
AcDbEntity
  8
axes
100
AcDbLine
 10
-35.0
 20
-39.24
 30
0.0
 11
35.0
 21
-39.24
 31
0.0
  0
LINE
  5
41
330
1D4
100
AcDbEntity
  8
axes
100
AcDbLine
 10
-15.0
 20
-49.24
 30
0.0
 11
-15.0
 21
-29.24
 31
0.0
  0
LINE
  5
42
330
1D4
100
AcDbEntity
  8
axes
100
AcDbLine
 10
15.0
 20
-49.24
 30
0.0
 11
15.0
 21
-29.24
 31
0.0
  0
CIRCLE
  5
43
330
1D4
100
AcDbEntity
  8
contours
100
AcDbCircle
 10
-15.0
 20
-39.24
 30
0.0
 40
4.0
  0
CIRCLE
  5
44
330
1D4
100
AcDbEntity
  8
contours
100
AcDbCircle
 10
15.0
 20
-39.24
 30
0.0
 40
4.0
  0
DIMENSION
  5
46
330
1D4
100
AcDbEntity
  8
contours
100
AcDbDimension
280
     0
  2
*D2
 10
15.0
 20
-52.08814814814815
 30
0.0
 11
0.0
 21
-46.08814814814815
 31
0.0
 70
    32
 71
     5
 42
30.0
 73
     0
 74
     0
 75
     0
  3
QCADDimStyle
100
AcDbAlignedDimension
 13
-15.0
 23
-39.24000000000001
 33
0.0
 14
15.0
 24
-39.24
 34
0.0
100
AcDbRotatedDimension
1001
ACAD
1000
DSTYLE
1002
{
1070
   178
1070
     0
1070
   177
1070
     0
1070
   176
1070
     0
1070
   279
1070
     2
1070
   179
1070
     1
1070
    41
1040
8.0
1070
    79
1070
     2
1070
   271
1070
     2
1070
    44
1040
4.0
1070
    42
1040
2.0
1070
   147
1040
2.0
1070
   140
1040
8.0
1070
    78
1070
     8
1002
}
  0
ARC
  5
47
330
1D4
100
AcDbEntity
  8
contours
100
AcDbCircle
 10
-23.0
 20
-22.00000000000001
 30
0.0
 40
12.0
100
AcDbArc
 50
90.00000000000001
 51
180.0
  0
ARC
  5
48
330
1D4
100
AcDbEntity
  8
contours
100
AcDbCircle
 10
23.0
 20
-21.99999999999999
 30
0.0
 40
12.0
100
AcDbArc
 50
0.0
 51
90.0
  0
ARC
  5
49
330
1D4
100
AcDbEntity
  8
contours
100
AcDbCircle
 10
0.0
 20
-362.7838172690212
 30
0.0
 40
304.8
100
AcDbArc
 50
83.4062150086055
 51
96.59378499139451
  0
ARC
  5
4A
330
1D4
100
AcDbEntity
  8
contours
100
AcDbCircle
 10
-35.0
 20
-39.24
 30
0.0
 40
12.0
100
AcDbArc
 50
270.0
 51
90.0
  0
ARC
  5
4B
330
1D4
100
AcDbEntity
  8
contours
100
AcDbCircle
 10
35.0
 20
-39.24
 30
0.0
 40
12.0
100
AcDbArc
 50
89.99999999999999
 51
270.0
  0
LINE
  5
4C
330
1D4
100
AcDbEntity
  8
contours
100
AcDbLine
 10
-34.99999999999959
 20
-120.0
 30
0.0
 11
-35.0
 21
-111.24
 31
0.0
  0
LINE
  5
4D
330
1D4
100
AcDbEntity
  8
contours
100
AcDbLine
 10
-35.0
 20
-87.24
 30
0.0
 11
-35.0
 21
-82.0
 31
0.0
  0
LINE
  5
4E
330
1D4
100
AcDbEntity
  8
contours
100
AcDbLine
 10
-23.0
 20
-70.0
 30
0.0
 11
23.0
 21
-70.0
 31
0.0
  0
LINE
  5
4F
330
1D4
100
AcDbEntity
  8
contours
100
AcDbLine
 10
35.0
 20
-82.0
 30
0.0
 11
35.0
 21
-87.23999999999998
 31
0.0
  0
LINE
  5
50
330
1D4
100
AcDbEntity
  8
contours
100
AcDbLine
 10
35.0
 20
-111.24
 30
0.0
 11
35.0
 21
-120.0
 31
0.0
  0
ARC
  5
51
330
1D4
100
AcDbEntity
  8
contours
100
AcDbCircle
 10
-23.0
 20
-82.0
 30
0.0
 40
12.0
100
AcDbArc
 50
90.0
 51
180.0
  0
ARC
  5
52
330
1D4
100
AcDbEntity
  8
contours
100
AcDbCircle
 10
23.0
 20
-82.0
 30
0.0
 40
12.0
100
AcDbArc
 50
0.0
 51
90.0
  0
LINE
  5
53
330
1D4
100
AcDbEntity
  8
axes
100
AcDbLine
 10
-35.0
 20
-99.24000000000001
 30
0.0
 11
35.0
 21
-99.24000000000001
 31
0.0
  0
LINE
  5
54
330
1D4
100
AcDbEntity
  8
axes
100
AcDbLine
 10
-15.0
 20
-109.24
 30
0.0
 11
-15.0
 21
-89.24000000000001
 31
0.0
  0
LINE
  5
55
330
1D4
100
AcDbEntity
  8
axes
100
AcDbLine
 10
15.0
 20
-109.24
 30
0.0
 11
15.0
 21
-89.24000000000001
 31
0.0
  0
CIRCLE
  5
56
330
1D4
100
AcDbEntity
  8
contours
100
AcDbCircle
 10
-15.0
 20
-99.24000000000001
 30
0.0
 40
4.0
  0
CIRCLE
  5
57
330
1D4
100
AcDbEntity
  8
contours
100
AcDbCircle
 10
15.0
 20
-99.24000000000001
 30
0.0
 40
4.0
  0
DIMENSION
  5
59
330
1D4
100
AcDbEntity
  8
contours
100
AcDbDimension
280
     0
  2
*D3
 10
15.0
 20
-112.0881481481482
 30
0.0
 11
0.0
 21
-106.0881481481482
 31
0.0
 70
    32
 71
     5
 42
30.0
 73
     0
 74
     0
 75
     0
  3
QCADDimStyle
100
AcDbAlignedDimension
 13
-15.0
 23
-99.24000000000001
 33
0.0
 14
15.0
 24
-99.24000000000001
 34
0.0
100
AcDbRotatedDimension
1001
ACAD
1000
DSTYLE
1002
{
1070
   178
1070
     0
1070
   177
1070
     0
1070
   176
1070
     0
1070
   279
1070
     2
1070
   179
1070
     1
1070
    41
1040
8.0
1070
    79
1070
     2
1070
   271
1070
     2
1070
    44
1040
4.0
1070
    42
1040
2.0
1070
   147
1040
2.0
1070
   140
1040
8.0
1070
    78
1070
     8
1002
}
  0
ARC
  5
5A
330
1D4
100
AcDbEntity
  8
contours
100
AcDbCircle
 10
-23.0
 20
-82.0
 30
0.0
 40
12.0
100
AcDbArc
 50
90.00000000000001
 51
180.0
  0
ARC
  5
5B
330
1D4
100
AcDbEntity
  8
contours
100
AcDbCircle
 10
23.0
 20
-82.0
 30
0.0
 40
12.0
100
AcDbArc
 50
0.0
 51
90.0
  0
ARC
  5
5C
330
1D4
100
AcDbEntity
  8
contours
100
AcDbCircle
 10
0.0
 20
-422.7838172690212
 30
0.0
 40
304.8
100
AcDbArc
 50
83.4062150086055
 51
96.59378499139451
  0
ARC
  5
5D
330
1D4
100
AcDbEntity
  8
contours
100
AcDbCircle
 10
-35.0
 20
-99.24000000000001
 30
0.0
 40
12.0
100
AcDbArc
 50
270.0
 51
90.0
  0
ARC
  5
5E
330
1D4
100
AcDbEntity
  8
contours
100
AcDbCircle
 10
35.0
 20
-99.24000000000001
 30
0.0
 40
12.0
100
AcDbArc
 50
89.99999999999999
 51
270.0
  0
LINE
  5
5F
330
1D4
100
AcDbEntity
  8
contours
100
AcDbLine
 10
-34.99999999999959
 20
-180.0
 30
0.0
 11
-35.0
 21
-171.24
 31
0.0
  0
LINE
  5
60
330
1D4
100
AcDbEntity
  8
contours
100
AcDbLine
 10
-35.0
 20
-147.24
 30
0.0
 11
-35.0
 21
-142.0
 31
0.0
  0
LINE
  5
61
330
1D4
100
AcDbEntity
  8
contours
100
AcDbLine
 10
-23.0
 20
-130.0
 30
0.0
 11
23.0
 21
-130.0
 31
0.0
  0
LINE
  5
62
330
1D4
100
AcDbEntity
  8
contours
100
AcDbLine
 10
35.0
 20
-142.0
 30
0.0
 11
35.0
 21
-147.24
 31
0.0
  0
LINE
  5
63
330
1D4
100
AcDbEntity
  8
contours
100
AcDbLine
 10
35.0
 20
-171.24
 30
0.0
 11
35.0
 21
-180.0
 31
0.0
  0
ARC
  5
64
330
1D4
100
AcDbEntity
  8
contours
100
AcDbCircle
 10
-23.0
 20
-142.0
 30
0.0
 40
12.0
100
AcDbArc
 50
90.0
 51
180.0
  0
ARC
  5
65
330
1D4
100
AcDbEntity
  8
contours
100
AcDbCircle
 10
23.0
 20
-142.0
 30
0.0
 40
12.0
100
AcDbArc
 50
0.0
 51
90.0
  0
LINE
  5
66
330
1D4
100
AcDbEntity
  8
axes
100
AcDbLine
 10
-35.0
 20
-159.24
 30
0.0
 11
35.0
 21
-159.24
 31
0.0
  0
LINE
  5
67
330
1D4
100
AcDbEntity
  8
axes
100
AcDbLine
 10
-15.0
 20
-169.24
 30
0.0
 11
-15.0
 21
-149.24
 31
0.0
  0
LINE
  5
68
330
1D4
100
AcDbEntity
  8
axes
100
AcDbLine
 10
15.0
 20
-169.24
 30
0.0
 11
15.0
 21
-149.24
 31
0.0
  0
CIRCLE
  5
69
330
1D4
100
AcDbEntity
  8
contours
100
AcDbCircle
 10
-15.0
 20
-159.24
 30
0.0
 40
4.0
  0
CIRCLE
  5
6A
330
1D4
100
AcDbEntity
  8
contours
100
AcDbCircle
 10
15.0
 20
-159.24
 30
0.0
 40
4.0
  0
DIMENSION
  5
6C
330
1D4
100
AcDbEntity
  8
contours
100
AcDbDimension
280
     0
  2
*D4
 10
15.0
 20
-172.0881481481482
 30
0.0
 11
0.0
 21
-166.0881481481482
 31
0.0
 70
    32
 71
     5
 42
30.0
 73
     0
 74
     0
 75
     0
  3
QCADDimStyle
100
AcDbAlignedDimension
 13
-15.0
 23
-159.24
 33
0.0
 14
15.0
 24
-159.24
 34
0.0
100
AcDbRotatedDimension
1001
ACAD
1000
DSTYLE
1002
{
1070
   178
1070
     0
1070
   177
1070
     0
1070
   176
1070
     0
1070
   279
1070
     2
1070
   179
1070
     1
1070
    41
1040
8.0
1070
    79
1070
     2
1070
   271
1070
     2
1070
    44
1040
4.0
1070
    42
1040
2.0
1070
   147
1040
2.0
1070
   140
1040
8.0
1070
    78
1070
     8
1002
}
  0
ARC
  5
6D
330
1D4
100
AcDbEntity
  8
contours
100
AcDbCircle
 10
-23.0
 20
-142.0
 30
0.0
 40
12.0
100
AcDbArc
 50
90.00000000000001
 51
180.0
  0
ARC
  5
6E
330
1D4
100
AcDbEntity
  8
contours
100
AcDbCircle
 10
23.0
 20
-142.0
 30
0.0
 40
12.0
100
AcDbArc
 50
0.0
 51
90.0
  0
ARC
  5
6F
330
1D4
100
AcDbEntity
  8
contours
100
AcDbCircle
 10
0.0
 20
-482.7838172690212
 30
0.0
 40
304.8
100
AcDbArc
 50
83.4062150086055
 51
96.59378499139451
  0
ARC
  5
70
330
1D4
100
AcDbEntity
  8
contours
100
AcDbCircle
 10
-35.0
 20
-159.24
 30
0.0
 40
12.0
100
AcDbArc
 50
270.0
 51
90.0
  0
ARC
  5
71
330
1D4
100
AcDbEntity
  8
contours
100
AcDbCircle
 10
35.0
 20
-159.24
 30
0.0
 40
12.0
100
AcDbArc
 50
89.99999999999999
 51
270.0
  0
LINE
  5
72
330
1D4
100
AcDbEntity
  8
contours
100
AcDbLine
 10
55.00000000000041
 20
0.0
 30
0.0
 11
55.0
 21
8.759999999999991
 31
0.0
  0
LINE
  5
73
330
1D4
100
AcDbEntity
  8
contours
100
AcDbLine
 10
55.0
 20
32.75999999999999
 30
0.0
 11
55.0
 21
38.0
 31
0.0
  0
LINE
  5
74
330
1D4
100
AcDbEntity
  8
contours
100
AcDbLine
 10
67.0
 20
50.0
 30
0.0
 11
113.0
 21
50.0
 31
0.0
  0
LINE
  5
75
330
1D4
100
AcDbEntity
  8
contours
100
AcDbLine
 10
125.0
 20
38.0
 30
0.0
 11
125.0
 21
32.76000000000002
 31
0.0
  0
LINE
  5
76
330
1D4
100
AcDbEntity
  8
contours
100
AcDbLine
 10
125.0
 20
8.759999999999991
 30
0.0
 11
125.0
 21
-0.0000000000000284
 31
0.0
  0
ARC
  5
77
330
1D4
100
AcDbEntity
  8
contours
100
AcDbCircle
 10
67.0
 20
38.0
 30
0.0
 40
12.0
100
AcDbArc
 50
90.0
 51
180.0
  0
ARC
  5
78
330
1D4
100
AcDbEntity
  8
contours
100
AcDbCircle
 10
113.0
 20
38.0
 30
0.0
 40
12.0
100
AcDbArc
 50
0.0
 51
90.0
  0
LINE
  5
79
330
1D4
100
AcDbEntity
  8
axes
100
AcDbLine
 10
55.0
 20
20.75999999999999
 30
0.0
 11
125.0
 21
20.75999999999999
 31
0.0
  0
LINE
  5
7A
330
1D4
100
AcDbEntity
  8
axes
100
AcDbLine
 10
75.0
 20
10.75999999999999
 30
0.0
 11
75.0
 21
30.75999999999999
 31
0.0
  0
LINE
  5
7B
330
1D4
100
AcDbEntity
  8
axes
100
AcDbLine
 10
105.0
 20
10.75999999999999
 30
0.0
 11
105.0
 21
30.75999999999999
 31
0.0
  0
CIRCLE
  5
7C
330
1D4
100
AcDbEntity
  8
contours
100
AcDbCircle
 10
75.0
 20
20.75999999999999
 30
0.0
 40
4.0
  0
CIRCLE
  5
7D
330
1D4
100
AcDbEntity
  8
contours
100
AcDbCircle
 10
105.0
 20
20.75999999999999
 30
0.0
 40
4.0
  0
DIMENSION
  5
7F
330
1D4
100
AcDbEntity
  8
contours
100
AcDbDimension
280
     0
  2
*D5
 10
105.0
 20
7.91185185185185
 30
0.0
 11
90.0
 21
13.91185185185185
 31
0.0
 70
    32
 71
     5
 42
30.0
 73
     0
 74
     0
 75
     0
  3
QCADDimStyle
100
AcDbAlignedDimension
 13
75.0
 23
20.75999999999999
 33
0.0
 14
105.0
 24
20.75999999999999
 34
0.0
100
AcDbRotatedDimension
1001
ACAD
1000
DSTYLE
1002
{
1070
   178
1070
     0
1070
   177
1070
     0
1070
   176
1070
     0
1070
   279
1070
     2
1070
   179
1070
     1
1070
    41
1040
8.0
1070
    79
1070
     2
1070
   271
1070
     2
1070
    44
1040
4.0
1070
    42
1040
2.0
1070
   147
1040
2.0
1070
   140
1040
8.0
1070
    78
1070
     8
1002
}
  0
ARC
  5
80
330
1D4
100
AcDbEntity
  8
contours
100
AcDbCircle
 10
67.0
 20
38.0
 30
0.0
 40
12.0
100
AcDbArc
 50
90.00000000000001
 51
180.0
  0
ARC
  5
81
330
1D4
100
AcDbEntity
  8
contours
100
AcDbCircle
 10
113.0
 20
38.0
 30
0.0
 40
12.0
100
AcDbArc
 50
0.0
 51
90.0
  0
ARC
  5
82
330
1D4
100
AcDbEntity
  8
contours
100
AcDbCircle
 10
90.0
 20
-302.7838172690213
 30
0.0
 40
304.8
100
AcDbArc
 50
83.4062150086055
 51
96.59378499139451
  0
ARC
  5
83
330
1D4
100
AcDbEntity
  8
contours
100
AcDbCircle
 10
55.0
 20
20.75999999999999
 30
0.0
 40
12.0
100
AcDbArc
 50
270.0
 51
90.0
  0
ARC
  5
84
330
1D4
100
AcDbEntity
  8
contours
100
AcDbCircle
 10
125.0
 20
20.75999999999999
 30
0.0
 40
12.0
100
AcDbArc
 50
89.99999999999999
 51
270.0
  0
LINE
  5
85
330
1D4
100
AcDbEntity
  8
contours
100
AcDbLine
 10
55.00000000000041
 20
-60.0
 30
0.0
 11
55.0
 21
-51.24000000000001
 31
0.0
  0
LINE
  5
86
330
1D4
100
AcDbEntity
  8
contours
100
AcDbLine
 10
55.0
 20
-27.24000000000001
 30
0.0
 11
55.0
 21
-22.0
 31
0.0
  0
LINE
  5
87
330
1D4
100
AcDbEntity
  8
contours
100
AcDbLine
 10
67.0
 20
-10.0
 30
0.0
 11
113.0
 21
-10.0
 31
0.0
  0
LINE
  5
88
330
1D4
100
AcDbEntity
  8
contours
100
AcDbLine
 10
125.0
 20
-22.0
 30
0.0
 11
125.0
 21
-27.24000000000001
 31
0.0
  0
LINE
  5
89
330
1D4
100
AcDbEntity
  8
contours
100
AcDbLine
 10
125.0
 20
-51.24000000000001
 30
0.0
 11
125.0
 21
-60.00000000000006
 31
0.0
  0
ARC
  5
8A
330
1D4
100
AcDbEntity
  8
contours
100
AcDbCircle
 10
67.0
 20
-22.0
 30
0.0
 40
12.0
100
AcDbArc
 50
90.0
 51
180.0
  0
ARC
  5
8B
330
1D4
100
AcDbEntity
  8
contours
100
AcDbCircle
 10
113.0
 20
-22.0
 30
0.0
 40
12.0
100
AcDbArc
 50
0.0
 51
90.0
  0
LINE
  5
8C
330
1D4
100
AcDbEntity
  8
axes
100
AcDbLine
 10
55.0
 20
-39.24000000000001
 30
0.0
 11
125.0
 21
-39.24000000000001
 31
0.0
  0
LINE
  5
8D
330
1D4
100
AcDbEntity
  8
axes
100
AcDbLine
 10
75.0
 20
-49.24000000000001
 30
0.0
 11
75.0
 21
-29.24000000000001
 31
0.0
  0
LINE
  5
8E
330
1D4
100
AcDbEntity
  8
axes
100
AcDbLine
 10
105.0
 20
-49.24000000000001
 30
0.0
 11
105.0
 21
-29.24000000000001
 31
0.0
  0
CIRCLE
  5
8F
330
1D4
100
AcDbEntity
  8
contours
100
AcDbCircle
 10
75.0
 20
-39.24000000000001
 30
0.0
 40
4.0
  0
CIRCLE
  5
90
330
1D4
100
AcDbEntity
  8
contours
100
AcDbCircle
 10
105.0
 20
-39.24000000000001
 30
0.0
 40
4.0
  0
DIMENSION
  5
92
330
1D4
100
AcDbEntity
  8
contours
100
AcDbDimension
280
     0
  2
*D6
 10
105.0
 20
-52.08814814814815
 30
0.0
 11
90.0
 21
-46.08814814814815
 31
0.0
 70
    32
 71
     5
 42
30.0
 73
     0
 74
     0
 75
     0
  3
QCADDimStyle
100
AcDbAlignedDimension
 13
75.0
 23
-39.24000000000001
 33
0.0
 14
105.0
 24
-39.24000000000001
 34
0.0
100
AcDbRotatedDimension
1001
ACAD
1000
DSTYLE
1002
{
1070
   178
1070
     0
1070
   177
1070
     0
1070
   176
1070
     0
1070
   279
1070
     2
1070
   179
1070
     1
1070
    41
1040
8.0
1070
    79
1070
     2
1070
   271
1070
     2
1070
    44
1040
4.0
1070
    42
1040
2.0
1070
   147
1040
2.0
1070
   140
1040
8.0
1070
    78
1070
     8
1002
}
  0
ARC
  5
93
330
1D4
100
AcDbEntity
  8
contours
100
AcDbCircle
 10
67.0
 20
-22.0
 30
0.0
 40
12.0
100
AcDbArc
 50
90.00000000000001
 51
180.0
  0
ARC
  5
94
330
1D4
100
AcDbEntity
  8
contours
100
AcDbCircle
 10
113.0
 20
-22.0
 30
0.0
 40
12.0
100
AcDbArc
 50
0.0
 51
90.0
  0
ARC
  5
95
330
1D4
100
AcDbEntity
  8
contours
100
AcDbCircle
 10
90.0
 20
-362.7838172690213
 30
0.0
 40
304.8
100
AcDbArc
 50
83.4062150086055
 51
96.59378499139451
  0
ARC
  5
96
330
1D4
100
AcDbEntity
  8
contours
100
AcDbCircle
 10
55.0
 20
-39.24000000000001
 30
0.0
 40
12.0
100
AcDbArc
 50
270.0
 51
90.0
  0
ARC
  5
97
330
1D4
100
AcDbEntity
  8
contours
100
AcDbCircle
 10
125.0
 20
-39.24000000000001
 30
0.0
 40
12.0
100
AcDbArc
 50
89.99999999999999
 51
270.0
  0
LINE
  5
98
330
1D4
100
AcDbEntity
  8
contours
100
AcDbLine
 10
55.00000000000041
 20
-120.0
 30
0.0
 11
55.0
 21
-111.24
 31
0.0
  0
LINE
  5
99
330
1D4
100
AcDbEntity
  8
contours
100
AcDbLine
 10
55.0
 20
-87.24000000000001
 30
0.0
 11
55.0
 21
-82.0
 31
0.0
  0
LINE
  5
9A
330
1D4
100
AcDbEntity
  8
contours
100
AcDbLine
 10
67.0
 20
-70.0
 30
0.0
 11
113.0
 21
-70.0
 31
0.0
  0
LINE
  5
9B
330
1D4
100
AcDbEntity
  8
contours
100
AcDbLine
 10
125.0
 20
-82.0
 30
0.0
 11
125.0
 21
-87.24000000000001
 31
0.0
  0
LINE
  5
9C
330
1D4
100
AcDbEntity
  8
contours
100
AcDbLine
 10
125.0
 20
-111.24
 30
0.0
 11
125.0
 21
-120.0000000000001
 31
0.0
  0
ARC
  5
9D
330
1D4
100
AcDbEntity
  8
contours
100
AcDbCircle
 10
67.0
 20
-82.0
 30
0.0
 40
12.0
100
AcDbArc
 50
90.0
 51
180.0
  0
ARC
  5
9E
330
1D4
100
AcDbEntity
  8
contours
100
AcDbCircle
 10
113.0
 20
-82.0
 30
0.0
 40
12.0
100
AcDbArc
 50
0.0
 51
90.0
  0
LINE
  5
9F
330
1D4
100
AcDbEntity
  8
axes
100
AcDbLine
 10
55.0
 20
-99.24000000000001
 30
0.0
 11
125.0
 21
-99.24000000000001
 31
0.0
  0
LINE
  5
A0
330
1D4
100
AcDbEntity
  8
axes
100
AcDbLine
 10
75.0
 20
-109.24
 30
0.0
 11
75.0
 21
-89.24000000000001
 31
0.0
  0
LINE
  5
A1
330
1D4
100
AcDbEntity
  8
axes
100
AcDbLine
 10
105.0
 20
-109.24
 30
0.0
 11
105.0
 21
-89.24000000000001
 31
0.0
  0
CIRCLE
  5
A2
330
1D4
100
AcDbEntity
  8
contours
100
AcDbCircle
 10
75.0
 20
-99.24000000000001
 30
0.0
 40
4.0
  0
CIRCLE
  5
A3
330
1D4
100
AcDbEntity
  8
contours
100
AcDbCircle
 10
105.0
 20
-99.24000000000001
 30
0.0
 40
4.0
  0
DIMENSION
  5
A5
330
1D4
100
AcDbEntity
  8
contours
100
AcDbDimension
280
     0
  2
*D7
 10
105.0
 20
-112.0881481481482
 30
0.0
 11
90.0
 21
-106.0881481481482
 31
0.0
 70
    32
 71
     5
 42
30.0
 73
     0
 74
     0
 75
     0
  3
QCADDimStyle
100
AcDbAlignedDimension
 13
75.0
 23
-99.24000000000001
 33
0.0
 14
105.0
 24
-99.24000000000001
 34
0.0
100
AcDbRotatedDimension
1001
ACAD
1000
DSTYLE
1002
{
1070
   178
1070
     0
1070
   177
1070
     0
1070
   176
1070
     0
1070
   279
1070
     2
1070
   179
1070
     1
1070
    41
1040
8.0
1070
    79
1070
     2
1070
   271
1070
     2
1070
    44
1040
4.0
1070
    42
1040
2.0
1070
   147
1040
2.0
1070
   140
1040
8.0
1070
    78
1070
     8
1002
}
  0
ARC
  5
A6
330
1D4
100
AcDbEntity
  8
contours
100
AcDbCircle
 10
67.0
 20
-82.0
 30
0.0
 40
12.0
100
AcDbArc
 50
90.00000000000001
 51
180.0
  0
ARC
  5
A7
330
1D4
100
AcDbEntity
  8
contours
100
AcDbCircle
 10
113.0
 20
-82.0
 30
0.0
 40
12.0
100
AcDbArc
 50
0.0
 51
90.0
  0
ARC
  5
A8
330
1D4
100
AcDbEntity
  8
contours
100
AcDbCircle
 10
90.0
 20
-422.7838172690213
 30
0.0
 40
304.8
100
AcDbArc
 50
83.4062150086055
 51
96.59378499139451
  0
ARC
  5
A9
330
1D4
100
AcDbEntity
  8
contours
100
AcDbCircle
 10
55.0
 20
-99.24000000000001
 30
0.0
 40
12.0
100
AcDbArc
 50
270.0
 51
90.0
  0
ARC
  5
AA
330
1D4
100
AcDbEntity
  8
contours
100
AcDbCircle
 10
125.0
 20
-99.24000000000001
 30
0.0
 40
12.0
100
AcDbArc
 50
89.99999999999999
 51
270.0
  0
LINE
  5
AB
330
1D4
100
AcDbEntity
  8
contours
100
AcDbLine
 10
55.00000000000041
 20
-180.0
 30
0.0
 11
55.0
 21
-171.24
 31
0.0
  0
LINE
  5
AC
330
1D4
100
AcDbEntity
  8
contours
100
AcDbLine
 10
55.0
 20
-147.24
 30
0.0
 11
55.0
 21
-142.0
 31
0.0
  0
LINE
  5
AD
330
1D4
100
AcDbEntity
  8
contours
100
AcDbLine
 10
67.0
 20
-130.0
 30
0.0
 11
113.0
 21
-130.0
 31
0.0
  0
LINE
  5
AE
330
1D4
100
AcDbEntity
  8
contours
100
AcDbLine
 10
125.0
 20
-142.0
 30
0.0
 11
125.0
 21
-147.24
 31
0.0
  0
LINE
  5
AF
330
1D4
100
AcDbEntity
  8
contours
100
AcDbLine
 10
125.0
 20
-171.24
 30
0.0
 11
125.0
 21
-180.0000000000001
 31
0.0
  0
ARC
  5
B0
330
1D4
100
AcDbEntity
  8
contours
100
AcDbCircle
 10
67.0
 20
-142.0
 30
0.0
 40
12.0
100
AcDbArc
 50
90.0
 51
180.0
  0
ARC
  5
B1
330
1D4
100
AcDbEntity
  8
contours
100
AcDbCircle
 10
113.0
 20
-142.0
 30
0.0
 40
12.0
100
AcDbArc
 50
0.0
 51
90.0
  0
LINE
  5
B2
330
1D4
100
AcDbEntity
  8
axes
100
AcDbLine
 10
55.0
 20
-159.24
 30
0.0
 11
125.0
 21
-159.24
 31
0.0
  0
LINE
  5
B3
330
1D4
100
AcDbEntity
  8
axes
100
AcDbLine
 10
75.0
 20
-169.24
 30
0.0
 11
75.0
 21
-149.24
 31
0.0
  0
LINE
  5
B4
330
1D4
100
AcDbEntity
  8
axes
100
AcDbLine
 10
105.0
 20
-169.24
 30
0.0
 11
105.0
 21
-149.24
 31
0.0
  0
CIRCLE
  5
B5
330
1D4
100
AcDbEntity
  8
contours
100
AcDbCircle
 10
75.0
 20
-159.24
 30
0.0
 40
4.0
  0
CIRCLE
  5
B6
330
1D4
100
AcDbEntity
  8
contours
100
AcDbCircle
 10
105.0
 20
-159.24
 30
0.0
 40
4.0
  0
DIMENSION
  5
B8
330
1D4
100
AcDbEntity
  8
contours
100
AcDbDimension
280
     0
  2
*D8
 10
105.0
 20
-172.0881481481482
 30
0.0
 11
90.0
 21
-166.0881481481482
 31
0.0
 70
    32
 71
     5
 42
30.0
 73
     0
 74
     0
 75
     0
  3
QCADDimStyle
100
AcDbAlignedDimension
 13
75.0
 23
-159.24
 33
0.0
 14
105.0
 24
-159.24
 34
0.0
100
AcDbRotatedDimension
1001
ACAD
1000
DSTYLE
1002
{
1070
   178
1070
     0
1070
   177
1070
     0
1070
   176
1070
     0
1070
   279
1070
     2
1070
   179
1070
     1
1070
    41
1040
8.0
1070
    79
1070
     2
1070
   271
1070
     2
1070
    44
1040
4.0
1070
    42
1040
2.0
1070
   147
1040
2.0
1070
   140
1040
8.0
1070
    78
1070
     8
1002
}
  0
ARC
  5
B9
330
1D4
100
AcDbEntity
  8
contours
100
AcDbCircle
 10
67.0
 20
-142.0
 30
0.0
 40
12.0
100
AcDbArc
 50
90.00000000000001
 51
180.0
  0
ARC
  5
BA
330
1D4
100
AcDbEntity
  8
contours
100
AcDbCircle
 10
113.0
 20
-142.0
 30
0.0
 40
12.0
100
AcDbArc
 50
0.0
 51
90.0
  0
ARC
  5
BB
330
1D4
100
AcDbEntity
  8
contours
100
AcDbCircle
 10
90.0
 20
-482.7838172690213
 30
0.0
 40
304.8
100
AcDbArc
 50
83.4062150086055
 51
96.59378499139451
  0
ARC
  5
BC
330
1D4
100
AcDbEntity
  8
contours
100
AcDbCircle
 10
55.0
 20
-159.24
 30
0.0
 40
12.0
100
AcDbArc
 50
270.0
 51
90.0
  0
ARC
  5
BD
330
1D4
100
AcDbEntity
  8
contours
100
AcDbCircle
 10
125.0
 20
-159.24
 30
0.0
 40
12.0
100
AcDbArc
 50
89.99999999999999
 51
270.0
  0
DIMENSION
  5
1B5
330
1D4
100
AcDbEntity
  8
contours
100
AcDbDimension
280
     0
  2
*D9
 10
12.85371194851249
 20
24.13541813706716
 30
0.0
 11
11.46681753600001
 21
36.99655526399999
 31
0.0
 70
   163
 71
     5
 42
8.000000000000002
 73
     0
 74
     0
 75
     0
  3
QCADDimStyle
100
AcDbDiametricDimension
 15
17.14628805148751
 25
17.38458186293283
 35
0.0
 40
0.0
1001
ACAD
1000
DSTYLE
1002
{
1070
   178
1070
     0
1070
   177
1070
     0
1070
   176
1070
     0
1070
   279
1070
     2
1070
   179
1070
     1
1070
    41
1040
8.0
1070
    79
1070
     2
1070
   271
1070
     2
1070
    44
1040
4.0
1070
    42
1040
2.0
1070
   147
1040
2.0
1070
   140
1040
8.0
1070
    78
1070
     8
1002
}
  0
ENDSEC
  0
SECTION
  2
OBJECTS
  0
DICTIONARY
  5
1C2
330
0
100
AcDbDictionary
281
     1
  3
ACAD_GROUP
350
1C3
  3
ACAD_LAYOUT
350
1CF
  3
ACAD_MATERIAL
350
1F0
  3
ACAD_MLEADERSTYLE
350
28F
  3
ACAD_MLINESTYLE
350
1CC
  3
ACAD_PLOTSETTINGS
350
1CE
  3
ACAD_PLOTSTYLENAME
350
1C4
  3
ACAD_TABLESTYLE
350
28E
  3
ACAD_VISUALSTYLE
350
1DF
  3
QCAD_OBJECTS
350
1F5
  0
DICTIONARY
  5
1C3
102
{ACAD_REACTORS
330
1C2
102
}
330
1C2
100
AcDbDictionary
281
     1
  0
DICTIONARY
  5
1CF
102
{ACAD_REACTORS
330
1C2
102
}
330
1C2
100
AcDbDictionary
281
     1
  3
Layout1
350
1D3
  3
Layout2
350
1DB
  3
Model
350
1D7
  0
DICTIONARY
  5
1F0
102
{ACAD_REACTORS
330
1C2
102
}
330
1C2
100
AcDbDictionary
281
     1
  3
ByBlock
350
1F2
  3
ByLayer
350
1F1
  3
Global
350
1F3
  0
DICTIONARY
  5
28F
102
{ACAD_REACTORS
330
1C2
102
}
330
1C2
100
AcDbDictionary
281
     1
  0
DICTIONARY
  5
1CC
102
{ACAD_REACTORS
330
1C2
102
}
330
1C2
100
AcDbDictionary
281
     1
  3
Standard
350
1CD
  0
DICTIONARY
  5
1CE
102
{ACAD_REACTORS
330
1C2
102
}
330
1C2
100
AcDbDictionary
281
     1
  0
ACDBDICTIONARYWDFLT
  5
1C4
102
{ACAD_REACTORS
330
1C2
102
}
330
1C2
100
AcDbDictionary
281
     1
  3
Normal
350
1C5
100
AcDbDictionaryWithDefault
340
1C5
  0
DICTIONARY
  5
28E
102
{ACAD_REACTORS
330
1C2
102
}
330
1C2
100
AcDbDictionary
281
     1
  0
DICTIONARY
  5
1DF
102
{ACAD_REACTORS
330
1C2
102
}
330
1C2
100
AcDbDictionary
281
     1
  3
2dWireframe
350
1E4
  3
3D Hidden
350
1E6
  3
3dWireframe
350
1E5
  3
Basic
350
1E7
  3
Brighten
350
1EB
  3
ColorChange
350
1EF
  3
Conceptual
350
1E9
  3
Dim
350
1EA
  3
Facepattern
350
1EE
  3
Flat
350
1E0
  3
FlatWithEdges
350
1E1
  3
Gouraud
350
1E2
  3
GouraudWithEdges
350
1E3
  3
Linepattern
350
1ED
  3
Realistic
350
1E8
  3
Thicken
350
1EC
  0
DICTIONARY
  5
1F5
102
{ACAD_REACTORS
330
1C2
102
}
330
1C2
100
AcDbDictionary
281
     1
  3
Grid/DisplayGrid
350
205
  3
Grid/GridSpacingX
350
1FE
  3
Grid/GridSpacingY
350
1FF
  3
Grid/MetaGridSpacingX
350
1F9
  3
Grid/MetaGridSpacingY
350
1FC
  3
MultiPageSettings/Columns
350
1FD
  3
MultiPageSettings/GlueMarginsBottom
350
202
  3
MultiPageSettings/GlueMarginsLeft
350
200
  3
MultiPageSettings/GlueMarginsRight
350
1F6
  3
MultiPageSettings/GlueMarginsTop
350
209
  3
MultiPageSettings/PrintCropMarks
350
1F8
  3
MultiPageSettings/Rows
350
201
  3
PageSettings/OffsetX
350
207
  3
PageSettings/OffsetY
350
208
  3
PageSettings/PageOrientation
350
1F7
  3
PageSettings/PaperHeight
350
1FA
  3
PageSettings/PaperWidth
350
203
  3
PageSettings/Scale
350
1FB
  3
PageSettings/ShowPaperBorders
350
206
  3
UnitSettings/PaperUnit
350
204
  0
LAYOUT
  5
1D3
102
{ACAD_REACTORS
330
1CF
102
}
330
1CF
100
AcDbPlotSettings
  1

  2
none_device
  4

  6

 40
0.0
 41
0.0
 42
0.0
 43
0.0
 44
0.0
 45
0.0
 46
0.0
 47
0.0
 48
0.0
 49
0.0
140
0.0
141
0.0
142
1.0
143
1.0
 70
   688
 72
     0
 73
     0
 74
     5
  7

 75
    16
 76
     0
 77
     2
 78
   300
147
1.0
148
0.0
149
0.0
100
AcDbLayout
  1
Layout1
 70
     1
 71
     1
 10
0.0
 20
0.0
 11
12.0
 21
9.0
 12
0.0
 22
0.0
 32
0.0
 14
1.000000000000000E+20
 24
1.000000000000000E+20
 34
1.000000000000000E+20
 15
-1.000000000000000E+20
 25
-1.000000000000000E+20
 35
-1.000000000000000E+20
146
0.0
 13
0.0
 23
0.0
 33
0.0
 16
1.0
 26
0.0
 36
0.0
 17
0.0
 27
1.0
 37
0.0
 76
     0
330
1D0
  0
LAYOUT
  5
1DB
102
{ACAD_REACTORS
330
1CF
102
}
330
1CF
100
AcDbPlotSettings
  1

  2
none_device
  4

  6

 40
0.0
 41
0.0
 42
0.0
 43
0.0
 44
0.0
 45
0.0
 46
0.0
 47
0.0
 48
0.0
 49
0.0
140
0.0
141
0.0
142
1.0
143
1.0
 70
   688
 72
     0
 73
     0
 74
     5
  7

 75
    16
 76
     0
 77
     2
 78
   300
147
1.0
148
0.0
149
0.0
100
AcDbLayout
  1
Layout2
 70
     1
 71
     2
 10
0.0
 20
0.0
 11
0.0
 21
0.0
 12
0.0
 22
0.0
 32
0.0
 14
0.0
 24
0.0
 34
0.0
 15
0.0
 25
0.0
 35
0.0
146
0.0
 13
0.0
 23
0.0
 33
0.0
 16
1.0
 26
0.0
 36
0.0
 17
0.0
 27
1.0
 37
0.0
 76
     0
330
1D8
  0
LAYOUT
  5
1D7
102
{ACAD_REACTORS
330
1CF
102
}
330
1CF
100
AcDbPlotSettings
  1

  2
none_device
  4

  6

 40
0.0
 41
0.0
 42
0.0
 43
0.0
 44
0.0
 45
0.0
 46
0.0
 47
0.0
 48
0.0
 49
0.0
140
0.0
141
0.0
142
1.0
143
1.0
 70
  1712
 72
     0
 73
     0
 74
     0
  7

 75
     0
 76
     0
 77
     2
 78
   300
147
1.0
148
0.0
149
0.0
100
AcDbLayout
  1
Model
 70
     1
 71
     0
 10
0.0
 20
0.0
 11
12.0
 21
9.0
 12
0.0
 22
0.0
 32
0.0
 14
1.000000000000000E+20
 24
1.000000000000000E+20
 34
1.000000000000000E+20
 15
-1.000000000000000E+20
 25
-1.000000000000000E+20
 35
-1.000000000000000E+20
146
0.0
 13
0.0
 23
0.0
 33
0.0
 16
1.0
 26
0.0
 36
0.0
 17
0.0
 27
1.0
 37
0.0
 76
     0
330
1D4
331
1DE
  0
MATERIAL
  5
1F2
102
{ACAD_REACTORS
330
1F0
102
}
330
1F0
100
AcDbMaterial
  1
ByBlock
 72
     1
 94
      127
  0
MATERIAL
  5
1F1
102
{ACAD_REACTORS
330
1F0
102
}
330
1F0
100
AcDbMaterial
  1
ByLayer
 72
     1
 94
      127
  0
MATERIAL
  5
1F3
102
{ACAD_REACTORS
330
1F0
102
}
330
1F0
100
AcDbMaterial
  1
Global
 72
     1
 94
      127
  0
MLINESTYLE
  5
1CD
102
{ACAD_REACTORS
330
1CC
102
}
330
1CC
100
AcDbMlineStyle
  2
Standard
 70
     0
  3

 62
   256
 51
90.0
 52
90.0
 71
     2
 49
0.5
 62
   256
  6
BYLAYER
 49
-0.5
 62
   256
  6
BYLAYER
  0
ACDBPLACEHOLDER
  5
1C5
102
{ACAD_REACTORS
330
1C4
102
}
330
1C4
  0
VISUALSTYLE
  5
1E4
102
{ACAD_REACTORS
330
1DF
102
}
330
1DF
100
AcDbVisualStyle
  2
2dWireframe
 70
     4
177
     2
291
     0
 71
     0
176
     1
 72
     2
176
     1
 73
     0
176
     1
 90
        0
176
     1
 40
-0.6
176
     1
 41
-30.0
176
     1
 62
     5
 63
     7
421
 16777215
176
     1
 74
     1
176
     1
 91
        4
176
     1
 64
     7
176
     1
 65
   257
176
     1
 75
     1
176
     1
175
     1
176
     1
 42
1.0
176
     1
 92
        0
176
     1
 66
   257
176
     1
 43
1.0
176
     1
 76
     1
176
     1
 77
     6
176
     1
 78
     2
176
     1
 67
     7
176
     1
 79
     5
176
     1
170
     0
176
     1
171
     0
176
     1
290
     0
176
     1
 93
        1
176
     1
 44
0.0
176
     1
173
     0
176
     1
  0
VISUALSTYLE
  5
1E6
102
{ACAD_REACTORS
330
1DF
102
}
330
1DF
100
AcDbVisualStyle
  2
3D Hidden
 70
     6
177
     2
291
     0
 71
     1
176
     1
 72
     2
176
     1
 73
     2
176
     1
 90
        0
176
     1
 40
-0.6
176
     1
 41
-30.0
176
     1
 62
     5
 63
     7
421
 16777215
176
     1
 74
     2
176
     1
 91
        2
176
     1
 64
     7
176
     1
 65
   257
176
     1
 75
     2
176
     1
175
     1
176
     1
 42
40.0
176
     1
 92
        0
176
     1
 66
   257
176
     1
 43
1.0
176
     1
 76
     1
176
     1
 77
     6
176
     1
 78
     2
176
     1
 67
     7
176
     1
 79
     3
176
     1
170
     0
176
     1
171
     0
176
     1
290
     0
176
     1
 93
        1
176
     1
 44
0.0
176
     1
173
     0
176
     1
  0
VISUALSTYLE
  5
1E5
102
{ACAD_REACTORS
330
1DF
102
}
330
1DF
100
AcDbVisualStyle
  2
3dWireframe
 70
     5
177
     2
291
     0
 71
     0
176
     1
 72
     2
176
     1
 73
     0
176
     1
 90
        0
176
     1
 40
-0.6
176
     1
 41
-30.0
176
     1
 62
     5
 63
     7
421
 16777215
176
     1
 74
     1
176
     1
 91
        4
176
     1
 64
     7
176
     1
 65
   257
176
     1
 75
     1
176
     1
175
     1
176
     1
 42
1.0
176
     1
 92
        0
176
     1
 66
   257
176
     1
 43
1.0
176
     1
 76
     1
176
     1
 77
     6
176
     1
 78
     2
176
     1
 67
     7
176
     1
 79
     5
176
     1
170
     0
176
     1
171
     0
176
     1
290
     0
176
     1
 93
        1
176
     1
 44
0.0
176
     1
173
     0
176
     1
  0
VISUALSTYLE
  5
1E7
102
{ACAD_REACTORS
330
1DF
102
}
330
1DF
100
AcDbVisualStyle
  2
Basic
 70
     7
177
     2
291
     1
 71
     1
176
     1
 72
     0
176
     1
 73
     1
176
     1
 90
        0
176
     1
 40
-0.6
176
     1
 41
-30.0
176
     1
 62
     5
 63
     7
421
 16777215
176
     1
 74
     0
176
     1
 91
        4
176
     1
 64
     7
176
     1
 65
   257
176
     1
 75
     1
176
     1
175
     1
176
     1
 42
1.0
176
     1
 92
        8
176
     1
 66
     7
176
     1
 43
1.0
176
     1
 76
     1
176
     1
 77
     6
176
     1
 78
     2
176
     1
 67
     7
176
     1
 79
     5
176
     1
170
     0
176
     1
171
     0
176
     1
290
     0
176
     1
 93
        1
176
     1
 44
0.0
176
     1
173
     0
176
     1
  0
VISUALSTYLE
  5
1EB
102
{ACAD_REACTORS
330
1DF
102
}
330
1DF
100
AcDbVisualStyle
  2
Brighten
 70
    12
177
     2
291
     1
 71
     2
176
     1
 72
     2
176
     1
 73
     0
176
     1
 90
        0
176
     1
 40
-0.6
176
     1
 41
-30.0
176
     1
 62
     5
 63
     7
421
 16777215
176
     1
 74
     1
176
     1
 91
        4
176
     1
 64
     7
176
     1
 65
   257
176
     1
 75
     1
176
     1
175
     1
176
     1
 42
1.0
176
     1
 92
        8
176
     1
 66
     7
176
     1
 43
1.0
176
     1
 76
     1
176
     1
 77
     6
176
     1
 78
     2
176
     1
 67
     7
176
     1
 79
     5
176
     1
170
     0
176
     1
171
     0
176
     1
290
     0
176
     1
 93
        1
176
     1
 44
50.0
176
     1
173
     0
176
     1
  0
VISUALSTYLE
  5
1EF
102
{ACAD_REACTORS
330
1DF
102
}
330
1DF
100
AcDbVisualStyle
  2
ColorChange
 70
    16
177
     2
291
     1
 71
     2
176
     1
 72
     2
176
     1
 73
     3
176
     1
 90
        0
176
     1
 40
-0.6
176
     1
 41
-30.0
176
     1
 62
     5
 63
     8
421
  8421504
176
     1
 74
     1
176
     1
 91
        4
176
     1
 64
     7
176
     1
 65
   257
176
     1
 75
     1
176
     1
175
     1
176
     1
 42
1.0
176
     1
 92
        8
176
     1
 66
     8
424
  8421504
176
     1
 43
1.0
176
     1
 76
     1
176
     1
 77
     6
176
     1
 78
     2
176
     1
 67
     7
176
     1
 79
     5
176
     1
170
     0
176
     1
171
     0
176
     1
290
     0
176
     1
 93
        1
176
     1
 44
0.0
176
     1
173
     0
176
     1
  0
VISUALSTYLE
  5
1E9
102
{ACAD_REACTORS
330
1DF
102
}
330
1DF
100
AcDbVisualStyle
  2
Conceptual
 70
     9
177
     2
291
     0
 71
     3
176
     1
 72
     2
176
     1
 73
     0
176
     1
 90
        0
176
     1
 40
-0.6
176
     1
 41
-30.0
176
     1
 62
     5
 63
     7
421
 16777215
176
     1
 74
     2
176
     1
 91
        2
176
     1
 64
     7
176
     1
 65
   257
176
     1
 75
     1
176
     1
175
     1
176
     1
 42
40.0
176
     1
 92
        8
176
     1
 66
     7
176
     1
 43
1.0
176
     1
 76
     1
176
     1
 77
     6
176
     1
 78
     2
176
     1
 67
     7
176
     1
 79
     3
176
     1
170
     0
176
     1
171
     0
176
     1
290
     0
176
     1
 93
        1
176
     1
 44
0.0
176
     1
173
     0
176
     1
  0
VISUALSTYLE
  5
1EA
102
{ACAD_REACTORS
330
1DF
102
}
330
1DF
100
AcDbVisualStyle
  2
Dim
 70
    11
177
     2
291
     1
 71
     2
176
     1
 72
     2
176
     1
 73
     0
176
     1
 90
        0
176
     1
 40
-0.6
176
     1
 41
-30.0
176
     1
 62
     5
 63
     7
421
 16777215
176
     1
 74
     1
176
     1
 91
        4
176
     1
 64
     7
176
     1
 65
   257
176
     1
 75
     1
176
     1
175
     1
176
     1
 42
1.0
176
     1
 92
        8
176
     1
 66
     7
176
     1
 43
1.0
176
     1
 76
     1
176
     1
 77
     6
176
     1
 78
     2
176
     1
 67
     7
176
     1
 79
     5
176
     1
170
     0
176
     1
171
     0
176
     1
290
     0
176
     1
 93
        1
176
     1
 44
-50.0
176
     1
173
     0
176
     1
  0
VISUALSTYLE
  5
1EE
102
{ACAD_REACTORS
330
1DF
102
}
330
1DF
100
AcDbVisualStyle
  2
Facepattern
 70
    15
177
     2
291
     1
 71
     2
176
     1
 72
     2
176
     1
 73
     0
176
     1
 90
        0
176
     1
 40
-0.6
176
     1
 41
-30.0
176
     1
 62
     5
 63
     7
421
 16777215
176
     1
 74
     1
176
     1
 91
        4
176
     1
 64
     7
176
     1
 65
   257
176
     1
 75
     1
176
     1
175
     1
176
     1
 42
1.0
176
     1
 92
        8
176
     1
 66
     7
176
     1
 43
1.0
176
     1
 76
     1
176
     1
 77
     6
176
     1
 78
     2
176
     1
 67
     7
176
     1
 79
     5
176
     1
170
     0
176
     1
171
     0
176
     1
290
     0
176
     1
 93
        1
176
     1
 44
0.0
176
     1
173
     0
176
     1
  0
VISUALSTYLE
  5
1E0
102
{ACAD_REACTORS
330
1DF
102
}
330
1DF
100
AcDbVisualStyle
  2
Flat
 70
     0
177
     2
291
     1
 71
     2
176
     1
 72
     1
176
     1
 73
     1
176
     1
 90
        2
176
     1
 40
-0.6
176
     1
 41
30.0
176
     1
 62
     5
 63
     7
421
 16777215
176
     1
 74
     0
176
     1
 91
        4
176
     1
 64
     7
176
     1
 65
   257
176
     1
 75
     1
176
     1
175
     1
176
     1
 42
1.0
176
     1
 92
        8
176
     1
 66
     7
176
     1
 43
1.0
176
     1
 76
     1
176
     1
 77
     6
176
     1
 78
     2
176
     1
 67
     7
176
     1
 79
     5
176
     1
170
     0
176
     1
171
     0
176
     1
290
     0
176
     1
 93
       13
176
     1
 44
0.0
176
     1
173
     0
176
     1
  0
VISUALSTYLE
  5
1E1
102
{ACAD_REACTORS
330
1DF
102
}
330
1DF
100
AcDbVisualStyle
  2
FlatWithEdges
 70
     1
177
     2
291
     1
 71
     2
176
     1
 72
     1
176
     1
 73
     1
176
     1
 90
        2
176
     1
 40
-0.6
176
     1
 41
30.0
176
     1
 62
     5
 63
     7
421
 16777215
176
     1
 74
     1
176
     1
 91
        4
176
     1
 64
     7
176
     1
 65
   257
176
     1
 75
     1
176
     1
175
     1
176
     1
 42
1.0
176
     1
 92
        0
176
     1
 66
   257
176
     1
 43
1.0
176
     1
 76
     1
176
     1
 77
     6
176
     1
 78
     2
176
     1
 67
     7
176
     1
 79
     5
176
     1
170
     0
176
     1
171
     0
176
     1
290
     0
176
     1
 93
       13
176
     1
 44
0.0
176
     1
173
     0
176
     1
  0
VISUALSTYLE
  5
1E2
102
{ACAD_REACTORS
330
1DF
102
}
330
1DF
100
AcDbVisualStyle
  2
Gouraud
 70
     2
177
     2
291
     1
 71
     2
176
     1
 72
     2
176
     1
 73
     1
176
     1
 90
        2
176
     1
 40
-0.6
176
     1
 41
30.0
176
     1
 62
     5
 63
     7
421
 16777215
176
     1
 74
     0
176
     1
 91
        4
176
     1
 64
     7
176
     1
 65
   257
176
     1
 75
     1
176
     1
175
     1
176
     1
 42
1.0
176
     1
 92
        0
176
     1
 66
     7
176
     1
 43
1.0
176
     1
 76
     1
176
     1
 77
     6
176
     1
 78
     2
176
     1
 67
     7
176
     1
 79
     5
176
     1
170
     0
176
     1
171
     0
176
     1
290
     0
176
     1
 93
       13
176
     1
 44
0.0
176
     1
173
     0
176
     1
  0
VISUALSTYLE
  5
1E3
102
{ACAD_REACTORS
330
1DF
102
}
330
1DF
100
AcDbVisualStyle
  2
GouraudWithEdges
 70
     3
177
     2
291
     1
 71
     2
176
     1
 72
     2
176
     1
 73
     1
176
     1
 90
        2
176
     1
 40
-0.6
176
     1
 41
30.0
176
     1
 62
     5
 63
     7
421
 16777215
176
     1
 74
     1
176
     1
 91
        4
176
     1
 64
     7
176
     1
 65
   257
176
     1
 75
     1
176
     1
175
     1
176
     1
 42
1.0
176
     1
 92
        0
176
     1
 66
   257
176
     1
 43
1.0
176
     1
 76
     1
176
     1
 77
     6
176
     1
 78
     2
176
     1
 67
     7
176
     1
 79
     5
176
     1
170
     0
176
     1
171
     0
176
     1
290
     0
176
     1
 93
       13
176
     1
 44
0.0
176
     1
173
     0
176
     1
  0
VISUALSTYLE
  5
1ED
102
{ACAD_REACTORS
330
1DF
102
}
330
1DF
100
AcDbVisualStyle
  2
Linepattern
 70
    14
177
     2
291
     1
 71
     2
176
     1
 72
     2
176
     1
 73
     0
176
     1
 90
        0
176
     1
 40
-0.6
176
     1
 41
-30.0
176
     1
 62
     5
 63
     7
421
 16777215
176
     1
 74
     1
176
     1
 91
        4
176
     1
 64
     7
176
     1
 65
   257
176
     1
 75
     7
176
     1
175
     7
176
     1
 42
1.0
176
     1
 92
        8
176
     1
 66
     7
176
     1
 43
1.0
176
     1
 76
     1
176
     1
 77
     6
176
     1
 78
     2
176
     1
 67
     7
176
     1
 79
     5
176
     1
170
     0
176
     1
171
     0
176
     1
290
     0
176
     1
 93
        1
176
     1
 44
0.0
176
     1
173
     0
176
     1
  0
VISUALSTYLE
  5
1E8
102
{ACAD_REACTORS
330
1DF
102
}
330
1DF
100
AcDbVisualStyle
  2
Realistic
 70
     8
177
     2
291
     0
 71
     2
176
     1
 72
     2
176
     1
 73
     0
176
     1
 90
        0
176
     1
 40
-0.6
176
     1
 41
-30.0
176
     1
 62
     5
 63
     7
421
 16777215
176
     1
 74
     1
176
     1
 91
        0
176
     1
 64
     7
176
     1
 65
   257
176
     1
 75
     1
176
     1
175
     1
176
     1
 42
1.0
176
     1
 92
        8
176
     1
 66
     8
424
  7895160
176
     1
 43
1.0
176
     1
 76
     1
176
     1
 77
     6
176
     1
 78
     2
176
     1
 67
     7
176
     1
 79
     5
176
     1
170
     0
176
     1
171
     0
176
     1
290
     0
176
     1
 93
       13
176
     1
 44
0.0
176
     1
173
     0
176
     1
  0
VISUALSTYLE
  5
1EC
102
{ACAD_REACTORS
330
1DF
102
}
330
1DF
100
AcDbVisualStyle
  2
Thicken
 70
    13
177
     2
291
     1
 71
     2
176
     1
 72
     2
176
     1
 73
     0
176
     1
 90
        0
176
     1
 40
-0.6
176
     1
 41
-30.0
176
     1
 62
     5
 63
     7
421
 16777215
176
     1
 74
     1
176
     1
 91
        4
176
     1
 64
     7
176
     1
 65
   257
176
     1
 75
     1
176
     1
175
     1
176
     1
 42
1.0
176
     1
 92
       12
176
     1
 66
     7
176
     1
 43
1.0
176
     1
 76
     1
176
     1
 77
     6
176
     1
 78
     2
176
     1
 67
     7
176
     1
 79
     5
176
     1
170
     0
176
     1
171
     0
176
     1
290
     0
176
     1
 93
        1
176
     1
 44
0.0
176
     1
173
     0
176
     1
  0
XRECORD
  5
205
102
{ACAD_REACTORS
330
1F5
102
}
330
1F5
100
AcDbXrecord
280
     1
290
     1
  0
XRECORD
  5
1FE
102
{ACAD_REACTORS
330
1F5
102
}
330
1F5
100
AcDbXrecord
280
     1
1000
auto
  0
XRECORD
  5
1FF
102
{ACAD_REACTORS
330
1F5
102
}
330
1F5
100
AcDbXrecord
280
     1
1000
auto
  0
XRECORD
  5
1F9
102
{ACAD_REACTORS
330
1F5
102
}
330
1F5
100
AcDbXrecord
280
     1
1000
auto
  0
XRECORD
  5
1FC
102
{ACAD_REACTORS
330
1F5
102
}
330
1F5
100
AcDbXrecord
280
     1
1000
auto
  0
XRECORD
  5
1FD
102
{ACAD_REACTORS
330
1F5
102
}
330
1F5
100
AcDbXrecord
280
     1
 90
        1
  0
XRECORD
  5
202
102
{ACAD_REACTORS
330
1F5
102
}
330
1F5
100
AcDbXrecord
280
     1
 40
2.9104
  0
XRECORD
  5
200
102
{ACAD_REACTORS
330
1F5
102
}
330
1F5
100
AcDbXrecord
280
     1
 40
2.9104
  0
XRECORD
  5
1F6
102
{ACAD_REACTORS
330
1F5
102
}
330
1F5
100
AcDbXrecord
280
     1
 40
3.175
  0
XRECORD
  5
209
102
{ACAD_REACTORS
330
1F5
102
}
330
1F5
100
AcDbXrecord
280
     1
 40
2.9104
  0
XRECORD
  5
1F8
102
{ACAD_REACTORS
330
1F5
102
}
330
1F5
100
AcDbXrecord
280
     1
290
     0
  0
XRECORD
  5
201
102
{ACAD_REACTORS
330
1F5
102
}
330
1F5
100
AcDbXrecord
280
     1
 90
        1
  0
XRECORD
  5
207
102
{ACAD_REACTORS
330
1F5
102
}
330
1F5
100
AcDbXrecord
280
     1
 40
-53.1457376256
  0
XRECORD
  5
208
102
{ACAD_REACTORS
330
1F5
102
}
330
1F5
100
AcDbXrecord
280
     1
 40
-218.7746869247998
  0
XRECORD
  5
1F7
102
{ACAD_REACTORS
330
1F5
102
}
330
1F5
100
AcDbXrecord
280
     1
1000
Portrait
  0
XRECORD
  5
1FA
102
{ACAD_REACTORS
330
1F5
102
}
330
1F5
100
AcDbXrecord
280
     1
 40
297.0
  0
XRECORD
  5
203
102
{ACAD_REACTORS
330
1F5
102
}
330
1F5
100
AcDbXrecord
280
     1
 40
210.0
  0
XRECORD
  5
1FB
102
{ACAD_REACTORS
330
1F5
102
}
330
1F5
100
AcDbXrecord
280
     1
1000
1:1
  0
XRECORD
  5
206
102
{ACAD_REACTORS
330
1F5
102
}
330
1F5
100
AcDbXrecord
280
     1
290
     1
  0
XRECORD
  5
204
102
{ACAD_REACTORS
330
1F5
102
}
330
1F5
100
AcDbXrecord
280
     1
 90
        4
  0
ENDSEC
  0
EOF
