  0
SECTION
  2
HEADER
  9
$ACADVER
  1
AC1027
  9
$ACADMAINTVER
 70
     8
  9
$DWGCODEPAGE
  3
ANSI_1252
  9
$REQUIREDVERSIONS
160
                 0
  9
$INSBASE
 10
0.0
 20
0.0
 30
0.0
  9
$EXTMIN
 10
1.000000000000000E+20
 20
1.000000000000000E+20
 30
1.000000000000000E+20
  9
$EXTMAX
 10
-1.000000000000000E+20
 20
-1.000000000000000E+20
 30
-1.000000000000000E+20
  9
$LIMMIN
 10
0.0
 20
0.0
  9
$LIMMAX
 10
12.0
 20
9.0
  9
$ORTHOMODE
 70
     0
  9
$REGENMODE
 70
     1
  9
$FILLMODE
 70
     1
  9
$QTEXTMODE
 70
     0
  9
$MIRRTEXT
 70
     1
  9
$LTSCALE
 40
1.0
  9
$ATTMODE
 70
     1
  9
$TEXTSIZE
 40
0.2
  9
$TRACEWID
 40
0.05
  9
$TEXTSTYLE
  7
Standard
  9
$CLAYER
  8
0
  9
$CELTYPE
  6
ByLayer
  9
$CECOLOR
 62
    18
  9
$CELTSCALE
 40
1.0
  9
$DISPSILH
 70
     0
  9
$DIMSCALE
 40
1.0
  9
$DIMASZ
 40
2.5
  9
$DIMEXO
 40
0.625
  9
$DIMDLI
 40
0.38
  9
$DIMRND
 40
0.0
  9
$DIMDLE
 40
0.0
  9
$DIMEXE
 40
1.25
  9
$DIMTP
 40
0.0
  9
$DIMTM
 40
0.0
  9
$DIMTXT
 40
4.0
  9
$DIMCEN
 40
0.09
  9
$DIMTSZ
 40
0.0
  9
$DIMTOL
 70
     0
  9
$DIMLIM
 70
     0
  9
$DIMTIH
 70
     1
  9
$DIMTOH
 70
     1
  9
$DIMSE1
 70
     0
  9
$DIMSE2
 70
     0
  9
$DIMTAD
 70
     0
  9
$DIMZIN
 70
     8
  9
$DIMBLK
  1

  9
$DIMASO
 70
     1
  9
$DIMSHO
 70
     1
  9
$DIMPOST
  1

  9
$DIMAPOST
  1

  9
$DIMALT
 70
     0
  9
$DIMALTD
 70
     2
  9
$DIMALTF
 40
25.4
  9
$DIMLFAC
 40
1.0
  9
$DIMTOFL
 70
     0
  9
$DIMTVP
 40
0.0
  9
$DIMTIX
 70
     0
  9
$DIMSOXD
 70
     0
  9
$DIMSAH
 70
     0
  9
$DIMBLK1
  1

  9
$DIMBLK2
  1

  9
$DIMSTYLE
  2
Standard
  9
$DIMCLRD
 70
    18
  9
$DIMCLRE
 70
    18
  9
$DIMCLRT
 70
    18
  9
$DIMTFAC
 40
1.0
  9
$DIMGAP
 40
0.625
  9
$DIMJUST
 70
     0
  9
$DIMSD1
 70
     0
  9
$DIMSD2
 70
     0
  9
$DIMTOLJ
 70
     1
  9
$DIMTZIN
 70
     0
  9
$DIMALTZ
 70
     0
  9
$DIMALTTZ
 70
     0
  9
$DIMUPT
 70
     0
  9
$DIMDEC
 70
     4
  9
$DIMTDEC
 70
     4
  9
$DIMALTU
 70
     2
  9
$DIMALTTD
 70
     2
  9
$DIMTXSTY
  7
Standard
  9
$DIMAUNIT
 70
     0
  9
$DIMADEC
 70
     0
  9
$DIMALTRND
 40
0.0
  9
$DIMAZIN
 70
     2
  9
$DIMDSEP
 70
    46
  9
$DIMATFIT
 70
     3
  9
$DIMFRAC
 70
     0
  9
$DIMLDRBLK
  1

  9
$DIMLUNIT
 70
     2
  9
$DIMLWD
 70
    -2
  9
$DIMLWE
 70
    -2
  9
$DIMTMOVE
 70
     0
  9
$DIMFXL
 40
1.0
  9
$DIMFXLON
 70
     0
  9
$DIMJOGANG
 40
0.7853981633974483
  9
$DIMTFILL
 70
     0
  9
$DIMTFILLCLR
 70
     0
  9
$DIMARCSYM
 70
     0
  9
$DIMLTYPE
  6

  9
$DIMLTEX1
  6

  9
$DIMLTEX2
  6

  9
$DIMTXTDIRECTION
 70
     0
  9
$LUNITS
 70
     2
  9
$LUPREC
 70
     4
  9
$SKETCHINC
 40
0.1
  9
$FILLETRAD
 40
0.5
  9
$AUNITS
 70
     0
  9
$AUPREC
 70
     0
  9
$MENU
  1
.
  9
$ELEVATION
 40
0.0
  9
$PELEVATION
 40
0.0
  9
$THICKNESS
 40
0.0
  9
$LIMCHECK
 70
     0
  9
$CHAMFERA
 40
0.5
  9
$CHAMFERB
 40
0.5
  9
$CHAMFERC
 40
1.0
  9
$CHAMFERD
 40
0.0
  9
$SKPOLY
 70
     0
  9
$TDCREATE
 40
2456603.970454074
  9
$TDUCREATE
 40
2456603.928787407
  9
$TDUPDATE
 40
2456603.970454537
  9
$TDUUPDATE
 40
2456603.92878787
  9
$TDINDWG
 40
0.0000000116
  9
$TDUSRTIMER
 40
0.0000000116
  9
$USRTIMER
 70
     1
  9
$ANGBASE
 50
0.0
  9
$ANGDIR
 70
     0
  9
$PDMODE
 70
     0
  9
$PDSIZE
 40
0.0
  9
$PLINEWID
 40
0.0
  9
$SPLFRAME
 70
     0
  9
$SPLINETYPE
 70
     6
  9
$SPLINESEGS
 70
     8
  9
$HANDSEED
  5
445
  9
$SURFTAB1
 70
     6
  9
$SURFTAB2
 70
     6
  9
$SURFTYPE
 70
     6
  9
$SURFU
 70
     6
  9
$SURFV
 70
     6
  9
$UCSBASE
  2

  9
$UCSNAME
  2

  9
$UCSORG
 10
0.0
 20
0.0
 30
0.0
  9
$UCSXDIR
 10
1.0
 20
0.0
 30
0.0
  9
$UCSYDIR
 10
0.0
 20
1.0
 30
0.0
  9
$UCSORTHOREF
  2

  9
$UCSORTHOVIEW
 70
     0
  9
$UCSORGTOP
 10
0.0
 20
0.0
 30
0.0
  9
$UCSORGBOTTOM
 10
0.0
 20
0.0
 30
0.0
  9
$UCSORGLEFT
 10
0.0
 20
0.0
 30
0.0
  9
$UCSORGRIGHT
 10
0.0
 20
0.0
 30
0.0
  9
$UCSORGFRONT
 10
0.0
 20
0.0
 30
0.0
  9
$UCSORGBACK
 10
0.0
 20
0.0
 30
0.0
  9
$PUCSBASE
  2

  9
$PUCSNAME
  2

  9
$PUCSORG
 10
0.0
 20
0.0
 30
0.0
  9
$PUCSXDIR
 10
1.0
 20
0.0
 30
0.0
  9
$PUCSYDIR
 10
0.0
 20
1.0
 30
0.0
  9
$PUCSORTHOREF
  2

  9
$PUCSORTHOVIEW
 70
     0
  9
$PUCSORGTOP
 10
0.0
 20
0.0
 30
0.0
  9
$PUCSORGBOTTOM
 10
0.0
 20
0.0
 30
0.0
  9
$PUCSORGLEFT
 10
0.0
 20
0.0
 30
0.0
  9
$PUCSORGRIGHT
 10
0.0
 20
0.0
 30
0.0
  9
$PUCSORGFRONT
 10
0.0
 20
0.0
 30
0.0
  9
$PUCSORGBACK
 10
0.0
 20
0.0
 30
0.0
  9
$USERI1
 70
     0
  9
$USERI2
 70
     0
  9
$USERI3
 70
     0
  9
$USERI4
 70
     0
  9
$USERI5
 70
     0
  9
$USERR1
 40
0.0
  9
$USERR2
 40
0.0
  9
$USERR3
 40
0.0
  9
$USERR4
 40
0.0
  9
$USERR5
 40
0.0
  9
$WORLDVIEW
 70
     1
  9
$SHADEDGE
 70
     3
  9
$SHADEDIF
 70
    70
  9
$TILEMODE
 70
     1
  9
$MAXACTVP
 70
    64
  9
$PINSBASE
 10
0.0
 20
0.0
 30
0.0
  9
$PLIMCHECK
 70
     0
  9
$PEXTMIN
 10
1.000000000000000E+20
 20
1.000000000000000E+20
 30
1.000000000000000E+20
  9
$PEXTMAX
 10
-1.000000000000000E+20
 20
-1.000000000000000E+20
 30
-1.000000000000000E+20
  9
$PLIMMIN
 10
0.0
 20
0.0
  9
$PLIMMAX
 10
12.0
 20
9.0
  9
$UNITMODE
 70
     0
  9
$VISRETAIN
 70
     1
  9
$PLINEGEN
 70
     0
  9
$PSLTSCALE
 70
     1
  9
$TREEDEPTH
 70
  3020
  9
$CMLSTYLE
  2
Standard
  9
$CMLJUST
 70
     0
  9
$CMLSCALE
 40
1.0
  9
$PROXYGRAPHICS
 70
     1
  9
$MEASUREMENT
 70
     1
  9
$CELWEIGHT
370
    -1
  9
$ENDCAPS
280
     0
  9
$JOINSTYLE
280
     0
  9
$LWDISPLAY
290
     0
  9
$INSUNITS
 70
     4
  9
$HYPERLINKBASE
  1

  9
$STYLESHEET
  1

  9
$XEDIT
290
     1
  9
$CEPSNTYPE
380
     0
  9
$PSTYLEMODE
290
     1
  9
$FINGERPRINTGUID
  2
{17700265-680C-49C5-ACF8-12912E60DDE5}
  9
$VERSIONGUID
  2
{FAEB1C32-E019-11D5-929B-00C0DF256EC4}
  9
$EXTNAMES
290
     1
  9
$PSVPSCALE
 40
0.0
  9
$OLESTARTUP
290
     0
  9
$SORTENTS
280
   127
  9
$INDEXCTL
280
     0
  9
$HIDETEXT
280
     1
  9
$XCLIPFRAME
280
     2
  9
$HALOGAP
280
     0
  9
$OBSCOLOR
 70
   257
  9
$OBSLTYPE
280
     0
  9
$INTERSECTIONDISPLAY
280
     0
  9
$INTERSECTIONCOLOR
 70
   257
  9
$DIMASSOC
280
     2
  9
$PROJECTNAME
  1

  9
$CAMERADISPLAY
290
     0
  9
$LENSLENGTH
 40
50.0
  9
$CAMERAHEIGHT
 40
0.0
  9
$STEPSPERSEC
 40
2.0
  9
$STEPSIZE
 40
6.0
  9
$3DDWFPREC
 40
2.0
  9
$PSOLWIDTH
 40
0.25
  9
$PSOLHEIGHT
 40
4.0
  9
$LOFTANG1
 40
1.570796326794897
  9
$LOFTANG2
 40
1.570796326794897
  9
$LOFTMAG1
 40
0.0
  9
$LOFTMAG2
 40
0.0
  9
$LOFTPARAM
 70
     7
  9
$LOFTNORMALS
280
     1
  9
$LATITUDE
 40
37.795
  9
$LONGITUDE
 40
-122.394
  9
$NORTHDIRECTION
 40
0.0
  9
$TIMEZONE
 70
 -8000
  9
$LIGHTGLYPHDISPLAY
280
     1
  9
$TILEMODELIGHTSYNCH
280
     1
  9
$CMATERIAL
347
1DD
  9
$SOLIDHIST
280
     1
  9
$SHOWHIST
280
     1
  9
$DWFFRAME
280
     2
  9
$DGNFRAME
280
     2
  9
$REALWORLDSCALE
290
     1
  9
$INTERFERECOLOR
 62
   256
  9
$CSHADOW
280
     0
  9
$SHADOWPLANELOCATION
 40
0.0
  0
ENDSEC
  0
SECTION
  2
CLASSES
  0
CLASS
  1
ACDBDICTIONARYWDFLT
  2
AcDbDictionaryWithDefault
  3
ObjectDBX Classes
 90
        0
 91
        4
280
     0
281
     0
  0
CLASS
  1
VISUALSTYLE
  2
AcDbVisualStyle
  3
ObjectDBX Classes
 90
     4095
 91
        4
280
     0
281
     0
  0
CLASS
  1
MATERIAL
  2
AcDbMaterial
  3
ObjectDBX Classes
 90
     1153
 91
        4
280
     0
281
     0
  0
CLASS
  1
SCALE
  2
AcDbScale
  3
ObjectDBX Classes
 90
     1153
 91
        4
280
     0
281
     0
  0
CLASS
  1
SUN
  2
AcDbSun
  3
SCENEOE
 90
     1153
 91
        4
280
     0
281
     0
  0
CLASS
  1
DICTIONARYVAR
  2
AcDbDictionaryVar
  3
ObjectDBX Classes
 90
        0
 91
        4
280
     0
281
     0
  0
ENDSEC
  0
SECTION
  2
TABLES
  0
TABLE
  2
VPORT
  5
1A2
330
0
100
AcDbSymbolTable
 70
     1
  0
VPORT
  5
1C2
330
1A2
100
AcDbSymbolTableRecord
100
AcDbViewportTableRecord
  2
*Active
 70
     0
 10
0.0
 20
0.0
 11
1.0
 21
1.0
 12
10.42990654205607
 22
4.5
 13
0.0
 23
0.0
 14
0.5
 24
0.5
 15
0.5
 25
0.5
 16
0.0
 26
0.0
 36
1.0
 17
0.0
 27
0.0
 37
0.0
 40
9.0
 41
1.972972972850329
 42
50.0
 43
0.0
 44
0.0
 50
0.0
 51
0.0
 71
     0
 72
   100
 73
     1
 74
     3
 75
     0
 76
     0
 77
     0
 78
     0
281
     0
 65
     1
110
0.0
120
0.0
130
0.0
111
1.0
121
0.0
131
0.0
112
0.0
122
1.0
132
0.0
 79
     0
146
0.0
 60
     3
 61
     5
292
     1
282
     1
141
0.0
142
0.0
 63
   250
361
202
  0
ENDTAB
  0
TABLE
  2
LTYPE
  5
19F
330
0
100
AcDbSymbolTable
 70
    19
  0
LTYPE
  5
1AD
330
19F
100
AcDbSymbolTableRecord
100
AcDbLinetypeTableRecord
  2
ByBlock
 70
     0
  3

 72
    65
 73
     0
 40
0.0
  0
LTYPE
  5
1AE
330
19F
100
AcDbSymbolTableRecord
100
AcDbLinetypeTableRecord
  2
ByLayer
 70
     0
  3

 72
    65
 73
     0
 40
0.0
  0
LTYPE
  5
1AF
330
19F
100
AcDbSymbolTableRecord
100
AcDbLinetypeTableRecord
  2
Continuous
 70
     0
  3
Solid line
 72
    65
 73
     0
 40
0.0
  0
LTYPE
  5
23F
330
19F
100
AcDbSymbolTableRecord
100
AcDbLinetypeTableRecord
  2
BORDER
 70
     0
  3

 72
    65
 73
     6
 40
42.00000000000001
 49
12.0
 74
     0
 49
-6.0
 74
     0
 49
12.0
 74
     0
 49
-5.95
 74
     0
 49
0.1
 74
     0
 49
-5.95
 74
     0
  0
LTYPE
  5
240
330
19F
100
AcDbSymbolTableRecord
100
AcDbLinetypeTableRecord
  2
BORDER2
 70
     0
  3

 72
    65
 73
     6
 40
21.0
 49
6.0
 74
     0
 49
-3.0
 74
     0
 49
6.0
 74
     0
 49
-2.95
 74
     0
 49
0.1
 74
     0
 49
-2.95
 74
     0
  0
LTYPE
  5
241
330
19F
100
AcDbSymbolTableRecord
100
AcDbLinetypeTableRecord
  2
BORDERX2
 70
     0
  3

 72
    65
 73
     6
 40
84.0
 49
24.0
 74
     0
 49
-12.0
 74
     0
 49
24.0
 74
     0
 49
-11.95
 74
     0
 49
0.1
 74
     0
 49
-11.95
 74
     0
  0
LTYPE
  5
242
330
19F
100
AcDbSymbolTableRecord
100
AcDbLinetypeTableRecord
  2
CENTER
 70
     0
  3

 72
    65
 73
     4
 40
50.0
 49
32.0
 74
     0
 49
-6.0
 74
     0
 49
6.0
 74
     0
 49
-6.0
 74
     0
  0
LTYPE
  5
243
330
19F
100
AcDbSymbolTableRecord
100
AcDbLinetypeTableRecord
  2
CENTER2
 70
     0
  3

 72
    65
 73
     4
 40
25.0
 49
16.0
 74
     0
 49
-3.0
 74
     0
 49
3.0
 74
     0
 49
-3.0
 74
     0
  0
LTYPE
  5
244
330
19F
100
AcDbSymbolTableRecord
100
AcDbLinetypeTableRecord
  2
CENTERX2
 70
     0
  3

 72
    65
 73
     4
 40
100.0
 49
64.0
 74
     0
 49
-12.0
 74
     0
 49
12.0
 74
     0
 49
-12.0
 74
     0
  0
LTYPE
  5
245
330
19F
100
AcDbSymbolTableRecord
100
AcDbLinetypeTableRecord
  2
DASHDOT
 70
     0
  3

 72
    65
 73
     4
 40
24.0
 49
12.0
 74
     0
 49
-5.95
 74
     0
 49
0.1
 74
     0
 49
-5.95
 74
     0
  0
LTYPE
  5
246
330
19F
100
AcDbSymbolTableRecord
100
AcDbLinetypeTableRecord
  2
DASHDOT2
 70
     0
  3

 72
    65
 73
     4
 40
12.0
 49
6.0
 74
     0
 49
-2.95
 74
     0
 49
0.1
 74
     0
 49
-2.95
 74
     0
  0
LTYPE
  5
247
330
19F
100
AcDbSymbolTableRecord
100
AcDbLinetypeTableRecord
  2
DASHDOTX2
 70
     0
  3

 72
    65
 73
     4
 40
48.0
 49
24.0
 74
     0
 49
-11.95
 74
     0
 49
0.1
 74
     0
 49
-11.95
 74
     0
  0
LTYPE
  5
248
330
19F
100
AcDbSymbolTableRecord
100
AcDbLinetypeTableRecord
  2
DASHED
 70
     0
  3

 72
    65
 73
     2
 40
18.0
 49
12.0
 74
     0
 49
-6.0
 74
     0
  0
LTYPE
  5
249
330
19F
100
AcDbSymbolTableRecord
100
AcDbLinetypeTableRecord
  2
DASHED2
 70
     0
  3

 72
    65
 73
     2
 40
9.0
 49
6.0
 74
     0
 49
-3.0
 74
     0
  0
LTYPE
  5
24A
330
19F
100
AcDbSymbolTableRecord
100
AcDbLinetypeTableRecord
  2
DASHEDX2
 70
     0
  3

 72
    65
 73
     2
 40
36.0
 49
24.0
 74
     0
 49
-12.0
 74
     0
  0
LTYPE
  5
24B
330
19F
100
AcDbSymbolTableRecord
100
AcDbLinetypeTableRecord
  2
DIVIDE
 70
     0
  3

 72
    65
 73
     6
 40
29.99999999999999
 49
12.0
 74
     0
 49
-5.9
 74
     0
 49
0.15
 74
     0
 49
-5.9
 74
     0
 49
0.15
 74
     0
 49
-5.9
 74
     0
  0
LTYPE
  5
24C
330
19F
100
AcDbSymbolTableRecord
100
AcDbLinetypeTableRecord
  2
DIVIDE2
 70
     0
  3

 72
    65
 73
     6
 40
15.0
 49
6.0
 74
     0
 49
-2.9
 74
     0
 49
0.15
 74
     0
 49
-2.9
 74
     0
 49
0.15
 74
     0
 49
-2.9
 74
     0
  0
LTYPE
  5
24D
330
19F
100
AcDbSymbolTableRecord
100
AcDbLinetypeTableRecord
  2
DIVIDEX2
 70
     0
  3

 72
    65
 73
     6
 40
59.99999999999999
 49
24.0
 74
     0
 49
-11.9
 74
     0
 49
0.15
 74
     0
 49
-11.9
 74
     0
 49
0.15
 74
     0
 49
-11.9
 74
     0
  0
LTYPE
  5
24E
330
19F
100
AcDbSymbolTableRecord
100
AcDbLinetypeTableRecord
  2
DOT
 70
     0
  3

 72
    65
 73
     2
 40
6.3
 49
0.1
 74
     0
 49
-6.2
 74
     0
  0
LTYPE
  5
24F
330
19F
100
AcDbSymbolTableRecord
100
AcDbLinetypeTableRecord
  2
DOT2
 70
     0
  3

 72
    65
 73
     2
 40
3.2
 49
0.1
 74
     0
 49
-3.1
 74
     0
  0
LTYPE
  5
250
330
19F
100
AcDbSymbolTableRecord
100
AcDbLinetypeTableRecord
  2
DOTX2
 70
     0
  3

 72
    65
 73
     2
 40
12.5
 49
0.1
 74
     0
 49
-12.4
 74
     0
  0
ENDTAB
  0
TABLE
  2
LAYER
  5
19C
330
0
100
AcDbSymbolTable
 70
    12
  0
LAYER
  5
1AA
330
19C
100
AcDbSymbolTableRecord
100
AcDbLayerTableRecord
  2
0
 70
     0
 62
     7
420
 16777215
  6
Continuous
370
    25
390
1A9
347
1DF
348
0
  0
LAYER
  5
251
330
19C
100
AcDbSymbolTableRecord
100
AcDbLayerTableRecord
  2
Bec
 70
     0
 62
   253
420
 10526884
  6
Continuous
370
    25
390
1A9
347
1DF
348
0
  0
LAYER
  5
252
330
19C
100
AcDbSymbolTableRecord
100
AcDbLayerTableRecord
  2
1.Contours
 70
     0
 62
     5
420
      255
  6
Continuous
370
    25
390
1A9
347
1DF
348
0
  0
LAYER
  5
253
330
19C
100
AcDbSymbolTableRecord
100
AcDbLayerTableRecord
  2
2.Hidden
 70
     0
 62
     6
420
 16711935
  6
DASHED
370
     0
390
1A9
347
1DF
348
0
  0
LAYER
  5
254
330
19C
100
AcDbSymbolTableRecord
100
AcDbLayerTableRecord
  2
3.Axes
 70
     0
 62
     2
420
 16776960
  6
DASHDOTX2
370
    13
390
1A9
347
1DF
348
0
  0
LAYER
  5
255
330
19C
100
AcDbSymbolTableRecord
100
AcDbLayerTableRecord
  2
4.Notes
 70
     0
 62
     4
420
    65535
  6
Continuous
370
    18
390
1A9
347
1DF
348
0
  0
LAYER
  5
256
330
19C
100
AcDbSymbolTableRecord
100
AcDbLayerTableRecord
  2
5.Trait fin
 70
     0
 62
     9
420
 12632256
  6
Continuous
370
     0
390
1A9
347
1DF
348
0
  0
LAYER
  5
257
330
19C
100
AcDbSymbolTableRecord
100
AcDbLayerTableRecord
  2
6.Epure
 70
     0
 62
     1
420
 16711680
  6
Continuous
370
     0
390
1A9
347
1DF
348
0
  0
LAYER
  5
258
330
19C
100
AcDbSymbolTableRecord
100
AcDbLayerTableRecord
  2
7.Hachures
 70
     0
 62
   253
420
 10526884
  6
Continuous
370
     9
390
1A9
347
1DF
348
0
  0
LAYER
  5
259
330
19C
100
AcDbSymbolTableRecord
100
AcDbLayerTableRecord
  2
8.Cotations
 70
     0
 62
   253
420
 10526884
  6
Continuous
370
    18
390
1A9
347
1DF
348
0
  0
LAYER
  5
25A
330
19C
100
AcDbSymbolTableRecord
100
AcDbLayerTableRecord
  2
9.Text
 70
     0
 62
     3
420
    65280
  6
Continuous
370
    18
390
1A9
347
1DF
348
0
  0
LAYER
  5
25B
330
19C
100
AcDbSymbolTableRecord
100
AcDbLayerTableRecord
  2
Defpoints
 70
     0
 62
     7
420
 16777215
  6
Continuous
290
     0
370
    -3
390
1A9
347
1DF
348
0
  0
ENDTAB
  0
TABLE
  2
STYLE
  5
19D
330
0
100
AcDbSymbolTable
 70
    21
  0
STYLE
  5
1AB
330
19D
100
AcDbSymbolTableRecord
100
AcDbTextStyleTableRecord
  2
Standard
 70
     0
 40
0.0
 41
1.0
 50
0.0
 71
     0
 42
0.2
  3
txt
  4

  0
STYLE
  5
25C
330
19D
100
AcDbSymbolTableRecord
100
AcDbTextStyleTableRecord
  2
textstyle0
 70
     0
 40
0.0
 41
1.0
 50
0.0
 71
     0
 42
0.2
  3

  4

1001
ACAD
1000
Arial
1071
        0
  0
STYLE
  5
25D
330
19D
100
AcDbSymbolTableRecord
100
AcDbTextStyleTableRecord
  2
textstyle1
 70
     0
 40
0.0
 41
1.0
 50
0.0
 71
     0
 42
0.2
  3

  4

1001
ACAD
1000
Arial
1071
        0
  0
STYLE
  5
25E
330
19D
100
AcDbSymbolTableRecord
100
AcDbTextStyleTableRecord
  2
textstyle2
 70
     0
 40
0.0
 41
1.0
 50
0.0
 71
     0
 42
0.2
  3

  4

1001
ACAD
1000
Arial
1071
        0
  0
STYLE
  5
25F
330
19D
100
AcDbSymbolTableRecord
100
AcDbTextStyleTableRecord
  2
textstyle3
 70
     0
 40
0.0
 41
1.0
 50
0.0
 71
     0
 42
0.2
  3

  4

1001
ACAD
1000
Arial
1071
        0
  0
STYLE
  5
260
330
19D
100
AcDbSymbolTableRecord
100
AcDbTextStyleTableRecord
  2
textstyle4
 70
     0
 40
0.0
 41
1.0
 50
0.0
 71
     0
 42
0.2
  3

  4

1001
ACAD
1000
Arial
1071
        0
  0
STYLE
  5
261
330
19D
100
AcDbSymbolTableRecord
100
AcDbTextStyleTableRecord
  2
textstyle5
 70
     0
 40
0.0
 41
1.0
 50
0.0
 71
     0
 42
0.2
  3

  4

1001
ACAD
1000
Arial
1071
        0
  0
STYLE
  5
262
330
19D
100
AcDbSymbolTableRecord
100
AcDbTextStyleTableRecord
  2
textstyle6
 70
     0
 40
0.0
 41
1.0
 50
0.0
 71
     0
 42
0.2
  3

  4

1001
ACAD
1000
Arial
1071
        0
  0
STYLE
  5
263
330
19D
100
AcDbSymbolTableRecord
100
AcDbTextStyleTableRecord
  2
textstyle7
 70
     0
 40
0.0
 41
1.0
 50
0.0
 71
     0
 42
0.2
  3

  4

1001
ACAD
1000
Arial
1071
        0
  0
STYLE
  5
264
330
19D
100
AcDbSymbolTableRecord
100
AcDbTextStyleTableRecord
  2
textstyle8
 70
     0
 40
0.0
 41
1.0
 50
0.0
 71
     0
 42
0.2
  3

  4

1001
ACAD
1000
Arial
1071
        0
  0
STYLE
  5
265
330
19D
100
AcDbSymbolTableRecord
100
AcDbTextStyleTableRecord
  2
textstyle9
 70
     0
 40
0.0
 41
1.0
 50
0.0
 71
     0
 42
0.2
  3

  4

1001
ACAD
1000
Arial
1071
        0
  0
STYLE
  5
266
330
19D
100
AcDbSymbolTableRecord
100
AcDbTextStyleTableRecord
  2
textstyle10
 70
     0
 40
0.0
 41
1.0
 50
0.0
 71
     0
 42
0.2
  3

  4

1001
ACAD
1000
Arial
1071
        0
  0
STYLE
  5
267
330
19D
100
AcDbSymbolTableRecord
100
AcDbTextStyleTableRecord
  2
textstyle11
 70
     0
 40
0.0
 41
1.0
 50
0.0
 71
     0
 42
0.2
  3

  4

1001
ACAD
1000
Arial
1071
        0
  0
STYLE
  5
268
330
19D
100
AcDbSymbolTableRecord
100
AcDbTextStyleTableRecord
  2
textstyle12
 70
     0
 40
0.0
 41
1.0
 50
0.0
 71
     0
 42
0.2
  3

  4

1001
ACAD
1000
Arial
1071
        0
  0
STYLE
  5
269
330
19D
100
AcDbSymbolTableRecord
100
AcDbTextStyleTableRecord
  2
textstyle13
 70
     0
 40
0.0
 41
1.0
 50
0.0
 71
     0
 42
0.2
  3

  4

1001
ACAD
1000
Arial
1071
        0
  0
STYLE
  5
26A
330
19D
100
AcDbSymbolTableRecord
100
AcDbTextStyleTableRecord
  2
textstyle14
 70
     0
 40
0.0
 41
1.0
 50
0.0
 71
     0
 42
0.2
  3

  4

1001
ACAD
1000
Arial
1071
        0
  0
STYLE
  5
26B
330
19D
100
AcDbSymbolTableRecord
100
AcDbTextStyleTableRecord
  2
textstyle15
 70
     0
 40
0.0
 41
1.0
 50
0.0
 71
     0
 42
0.2
  3

  4

1001
ACAD
1000
Arial
1071
        0
  0
STYLE
  5
26C
330
19D
100
AcDbSymbolTableRecord
100
AcDbTextStyleTableRecord
  2
textstyle16
 70
     0
 40
0.0
 41
1.0
 50
0.0
 71
     0
 42
0.2
  3

  4

1001
ACAD
1000
Arial
1071
        0
  0
STYLE
  5
43C
330
19D
100
AcDbSymbolTableRecord
100
AcDbTextStyleTableRecord
  2
textstyle17
 70
     0
 40
0.0
 41
1.0
 50
0.0
 71
     0
 42
0.2
  3

  4

1001
ACAD
1000
Arial
1071
        0
  0
STYLE
  5
43D
330
19D
100
AcDbSymbolTableRecord
100
AcDbTextStyleTableRecord
  2
textstyle18
 70
     0
 40
0.0
 41
1.0
 50
0.0
 71
     0
 42
0.2
  3

  4

1001
ACAD
1000
Arial
1071
        0
  0
STYLE
  5
43E
330
19D
100
AcDbSymbolTableRecord
100
AcDbTextStyleTableRecord
  2
textstyle19
 70
     0
 40
0.0
 41
1.0
 50
0.0
 71
     0
 42
0.2
  3

  4

1001
ACAD
1000
Arial
1071
        0
  0
ENDTAB
  0
TABLE
  2
VIEW
  5
1A0
330
0
100
AcDbSymbolTable
 70
     0
  0
ENDTAB
  0
TABLE
  2
UCS
  5
1A1
330
0
100
AcDbSymbolTable
 70
     0
  0
ENDTAB
  0
TABLE
  2
APPID
  5
1A3
330
0
100
AcDbSymbolTable
 70
     2
  0
APPID
  5
1AC
330
1A3
100
AcDbSymbolTableRecord
100
AcDbRegAppTableRecord
  2
ACAD
 70
     0
  0
APPID
  5
203
330
1A3
100
AcDbSymbolTableRecord
100
AcDbRegAppTableRecord
  2
QCAD
 70
     0
  0
ENDTAB
  0
TABLE
  2
DIMSTYLE
  5
1A4
330
0
100
AcDbSymbolTable
 70
     2
100
AcDbDimStyleTable
  0
DIMSTYLE
105
1C0
330
1A4
100
AcDbSymbolTableRecord
100
AcDbDimStyleTableRecord
  2
Standard
 70
     0
178
     0
340
1AB
  0
DIMSTYLE
105
23E
102
{ACAD_REACTORS
330
163
330
167
330
168
330
169
330
16A
330
16B
330
16C
330
16D
330
16E
330
16F
330
170
330
171
330
172
330
173
330
174
330
175
330
176
330
177
330
178
330
179
330
17A
330
17B
330
17C
330
17D
330
17E
330
17F
330
180
330
181
330
182
330
183
330
184
330
185
330
186
330
187
330
188
330
189
330
18A
330
18B
330
18C
102
}
330
1A4
100
AcDbSymbolTableRecord
100
AcDbDimStyleTableRecord
  2
QCADDimStyle
 70
     0
 41
2.5
 42
0.625
 44
1.25
 73
     0
 77
     1
140
4.0
147
0.625
178
     0
340
1AB
  0
ENDTAB
  0
TABLE
  2
BLOCK_RECORD
  5
19B
330
0
100
AcDbSymbolTable
 70
    40
  0
BLOCK_RECORD
  5
1B8
330
19B
100
AcDbSymbolTableRecord
100
AcDbBlockTableRecord
  2
*Model_Space
340
1BB
 70
     0
280
     1
281
     0
  0
BLOCK_RECORD
  5
1B4
330
19B
100
AcDbSymbolTableRecord
100
AcDbBlockTableRecord
  2
*Paper_Space
340
1B7
 70
     0
280
     1
281
     0
  0
BLOCK_RECORD
  5
1BC
330
19B
100
AcDbSymbolTableRecord
100
AcDbBlockTableRecord
  2
*Paper_Space0
340
1BF
 70
     0
280
     1
281
     0
  0
BLOCK_RECORD
  5
26D
330
19B
100
AcDbSymbolTableRecord
100
AcDbBlockTableRecord
  2
*D1
340
0
 70
     0
280
     1
281
     0
  0
BLOCK_RECORD
  5
27A
330
19B
100
AcDbSymbolTableRecord
100
AcDbBlockTableRecord
  2
*D2
340
0
 70
     0
280
     1
281
     0
  0
BLOCK_RECORD
  5
287
330
19B
100
AcDbSymbolTableRecord
100
AcDbBlockTableRecord
  2
*D3
340
0
 70
     0
280
     1
281
     0
  0
BLOCK_RECORD
  5
294
330
19B
100
AcDbSymbolTableRecord
100
AcDbBlockTableRecord
  2
*D4
340
0
 70
     0
280
     1
281
     0
  0
BLOCK_RECORD
  5
2A1
330
19B
100
AcDbSymbolTableRecord
100
AcDbBlockTableRecord
  2
*D5
340
0
 70
     0
280
     1
281
     0
  0
BLOCK_RECORD
  5
2AE
330
19B
100
AcDbSymbolTableRecord
100
AcDbBlockTableRecord
  2
*D6
340
0
 70
     0
280
     1
281
     0
  0
BLOCK_RECORD
  5
2BB
330
19B
100
AcDbSymbolTableRecord
100
AcDbBlockTableRecord
  2
*D7
340
0
 70
     0
280
     1
281
     0
  0
BLOCK_RECORD
  5
2C8
330
19B
100
AcDbSymbolTableRecord
100
AcDbBlockTableRecord
  2
*D8
340
0
 70
     0
280
     1
281
     0
  0
BLOCK_RECORD
  5
2D5
330
19B
100
AcDbSymbolTableRecord
100
AcDbBlockTableRecord
  2
*D9
340
0
 70
     0
280
     1
281
     0
  0
BLOCK_RECORD
  5
2E2
330
19B
100
AcDbSymbolTableRecord
100
AcDbBlockTableRecord
  2
*D10
340
0
 70
     0
280
     1
281
     0
  0
BLOCK_RECORD
  5
2EF
330
19B
100
AcDbSymbolTableRecord
100
AcDbBlockTableRecord
  2
*D11
340
0
 70
     0
280
     1
281
     0
  0
BLOCK_RECORD
  5
2FC
330
19B
100
AcDbSymbolTableRecord
100
AcDbBlockTableRecord
  2
*D12
340
0
 70
     0
280
     1
281
     0
  0
BLOCK_RECORD
  5
309
330
19B
100
AcDbSymbolTableRecord
100
AcDbBlockTableRecord
  2
*D13
340
0
 70
     0
280
     1
281
     0
  0
BLOCK_RECORD
  5
316
330
19B
100
AcDbSymbolTableRecord
100
AcDbBlockTableRecord
  2
*D14
340
0
 70
     0
280
     1
281
     0
  0
BLOCK_RECORD
  5
323
330
19B
100
AcDbSymbolTableRecord
100
AcDbBlockTableRecord
  2
*D15
340
0
 70
     0
280
     1
281
     0
  0
BLOCK_RECORD
  5
330
330
19B
100
AcDbSymbolTableRecord
100
AcDbBlockTableRecord
  2
*D16
340
0
 70
     0
280
     1
281
     0
  0
BLOCK_RECORD
  5
33D
330
19B
100
AcDbSymbolTableRecord
100
AcDbBlockTableRecord
  2
*D17
340
0
 70
     0
280
     1
281
     0
  0
BLOCK_RECORD
  5
34A
330
19B
100
AcDbSymbolTableRecord
100
AcDbBlockTableRecord
  2
*D18
340
0
 70
     0
280
     1
281
     0
  0
BLOCK_RECORD
  5
357
330
19B
100
AcDbSymbolTableRecord
100
AcDbBlockTableRecord
  2
*D19
340
0
 70
     0
280
     1
281
     0
  0
BLOCK_RECORD
  5
364
330
19B
100
AcDbSymbolTableRecord
100
AcDbBlockTableRecord
  2
*D20
340
0
 70
     0
280
     1
281
     0
  0
BLOCK_RECORD
  5
371
330
19B
100
AcDbSymbolTableRecord
100
AcDbBlockTableRecord
  2
*D21
340
0
 70
     0
280
     1
281
     0
  0
BLOCK_RECORD
  5
37E
330
19B
100
AcDbSymbolTableRecord
100
AcDbBlockTableRecord
  2
*D22
340
0
 70
     0
280
     1
281
     0
  0
BLOCK_RECORD
  5
38B
330
19B
100
AcDbSymbolTableRecord
100
AcDbBlockTableRecord
  2
*D23
340
0
 70
     0
280
     1
281
     0
  0
BLOCK_RECORD
  5
398
330
19B
100
AcDbSymbolTableRecord
100
AcDbBlockTableRecord
  2
*D24
340
0
 70
     0
280
     1
281
     0
  0
BLOCK_RECORD
  5
3A5
330
19B
100
AcDbSymbolTableRecord
100
AcDbBlockTableRecord
  2
*D25
340
0
 70
     0
280
     1
281
     0
  0
BLOCK_RECORD
  5
3B2
330
19B
100
AcDbSymbolTableRecord
100
AcDbBlockTableRecord
  2
*D26
340
0
 70
     0
280
     1
281
     0
  0
BLOCK_RECORD
  5
3BF
330
19B
100
AcDbSymbolTableRecord
100
AcDbBlockTableRecord
  2
*D27
340
0
 70
     0
280
     1
281
     0
  0
BLOCK_RECORD
  5
3C8
330
19B
100
AcDbSymbolTableRecord
100
AcDbBlockTableRecord
  2
*D28
340
0
 70
     0
280
     1
281
     0
  0
BLOCK_RECORD
  5
3D1
330
19B
100
AcDbSymbolTableRecord
100
AcDbBlockTableRecord
  2
*D29
340
0
 70
     0
280
     1
281
     0
  0
BLOCK_RECORD
  5
3DA
330
19B
100
AcDbSymbolTableRecord
100
AcDbBlockTableRecord
  2
*D30
340
0
 70
     0
280
     1
281
     0
  0
BLOCK_RECORD
  5
3E3
330
19B
100
AcDbSymbolTableRecord
100
AcDbBlockTableRecord
  2
*D31
340
0
 70
     0
280
     1
281
     0
  0
BLOCK_RECORD
  5
3EC
330
19B
100
AcDbSymbolTableRecord
100
AcDbBlockTableRecord
  2
*D32
340
0
 70
     0
280
     1
281
     0
  0
BLOCK_RECORD
  5
3F5
330
19B
100
AcDbSymbolTableRecord
100
AcDbBlockTableRecord
  2
*D33
340
0
 70
     0
280
     1
281
     0
  0
BLOCK_RECORD
  5
3FE
330
19B
100
AcDbSymbolTableRecord
100
AcDbBlockTableRecord
  2
*D34
340
0
 70
     0
280
     1
281
     0
  0
BLOCK_RECORD
  5
407
330
19B
100
AcDbSymbolTableRecord
100
AcDbBlockTableRecord
  2
*D35
340
0
 70
     0
280
     1
281
     0
  0
BLOCK_RECORD
  5
410
330
19B
100
AcDbSymbolTableRecord
100
AcDbBlockTableRecord
  2
*D36
340
0
 70
     0
280
     1
281
     0
  0
BLOCK_RECORD
  5
419
330
19B
100
AcDbSymbolTableRecord
100
AcDbBlockTableRecord
  2
*D37
340
0
 70
     0
280
     1
281
     0
  0
BLOCK_RECORD
  5
422
330
19B
100
AcDbSymbolTableRecord
100
AcDbBlockTableRecord
  2
*D38
340
0
 70
     0
280
     1
281
     0
  0
BLOCK_RECORD
  5
42F
330
19B
100
AcDbSymbolTableRecord
100
AcDbBlockTableRecord
  2
*D39
340
0
 70
     0
280
     1
281
     0
  0
ENDTAB
  0
ENDSEC
  0
SECTION
  2
BLOCKS
  0
BLOCK
  5
1B9
330
1B8
100
AcDbEntity
  8
0
100
AcDbBlockBegin
  2
*Model_Space
 70
     0
 10
0.0
 20
0.0
 30
0.0
  3
*Model_Space
  1
*Model_Space
  0
ENDBLK
  5
1BA
330
1B8
100
AcDbEntity
  8
0
100
AcDbBlockEnd
  0
BLOCK
  5
1B5
330
1B4
100
AcDbEntity
 67
     1
  8
0
100
AcDbBlockBegin
  2
*Paper_Space
 70
     0
 10
0.0
 20
0.0
 30
0.0
  3
*Paper_Space
  1
*Paper_Space
  0
ENDBLK
  5
1B6
330
1B4
100
AcDbEntity
 67
     1
  8
0
100
AcDbBlockEnd
  0
BLOCK
  5
1BD
330
1BC
100
AcDbEntity
  8
0
100
AcDbBlockBegin
  2
*Paper_Space0
 70
     0
 10
0.0
 20
0.0
 30
0.0
  3
*Paper_Space0
  1
*Paper_Space0
  0
ENDBLK
  5
1BE
330
1BC
100
AcDbEntity
  8
0
100
AcDbBlockEnd
  0
BLOCK
  5
26E
330
26D
100
AcDbEntity
  8
0
100
AcDbBlockBegin
  2
*D1
 70
     1
 10
0.0
 20
0.0
 30
0.0
  3
*D1
  1
*D1
  0
LINE
  5
270
330
26D
100
AcDbEntity
  8
8.Cotations
 62
     0
370
    -2
100
AcDbLine
 10
550.0625
 20
26.00000000000002
 30
0.0
 11
559.0151999999997
 21
26.00000000000002
 31
0.0
  0
LINE
  5
271
330
26D
100
AcDbEntity
  8
8.Cotations
 62
     0
370
    -2
100
AcDbLine
 10
550.0625
 20
-25.99999999999989
 30
0.0
 11
559.0151999999997
 21
-25.99999999999989
 31
0.0
  0
LINE
  5
272
330
26D
100
AcDbEntity
  8
8.Cotations
 62
     0
370
    -2
100
AcDbLine
 10
558.8351999999998
 20
25.82000000000002
 30
0.0
 11
558.8351999999998
 21
0.1800000000000672
 31
0.0
  0
LINE
  5
273
330
26D
100
AcDbEntity
  8
8.Cotations
 62
     0
370
    -2
100
AcDbLine
 10
558.8351999999998
 20
-25.81999999999989
 30
0.0
 11
558.8351999999998
 21
-0.1799999999999322
 31
0.0
  0
SOLID
  5
274
330
26D
100
AcDbEntity
  8
8.Cotations
 62
     0
100
AcDbTrace
 10
558.8651999999997
 20
25.82000000000002
 30
0.0
 11
558.8051999999998
 21
25.82000000000002
 31
0.0
 12
558.8351999999998
 22
26.00000000000002
 32
0.0
 13
558.8351999999998
 23
26.00000000000002
 33
0.0
  0
SOLID
  5
275
330
26D
100
AcDbEntity
  8
8.Cotations
 62
     0
100
AcDbTrace
 10
558.8051999999998
 20
-25.81999999999989
 30
0.0
 11
558.8651999999997
 21
-25.81999999999989
 31
0.0
 12
558.8351999999998
 22
-25.99999999999989
 32
0.0
 13
558.8351999999998
 23
-25.99999999999989
 33
0.0
  0
MTEXT
  5
276
330
26D
100
AcDbEntity
  8
8.Cotations
 62
     0
100
AcDbMText
 10
558.8351999999998
 20
0.0000000000000639
 30
0.0
 40
0.18
 41
0.0
 46
0.0
 71
     5
 72
     1
  1
\A1;52.0000
 73
     1
 44
1.0
  0
POINT
  5
277
330
26D
100
AcDbEntity
  8
Defpoints
 62
     0
100
AcDbPoint
 10
550.0
 20
26.00000000000002
 30
0.0
  0
POINT
  5
278
330
26D
100
AcDbEntity
  8
Defpoints
 62
     0
100
AcDbPoint
 10
550.0
 20
-25.99999999999989
 30
0.0
  0
POINT
  5
279
330
26D
100
AcDbEntity
  8
Defpoints
 62
     0
100
AcDbPoint
 10
558.8351999999998
 20
-25.99999999999989
 30
0.0
  0
ENDBLK
  5
26F
330
26D
100
AcDbEntity
  8
0
100
AcDbBlockEnd
  0
BLOCK
  5
27B
330
27A
100
AcDbEntity
  8
0
100
AcDbBlockBegin
  2
*D2
 70
     1
 10
0.0
 20
0.0
 30
0.0
  3
*D2
  1
*D2
  0
LINE
  5
27D
330
27A
100
AcDbEntity
  8
8.Cotations
 62
     0
370
    -2
100
AcDbLine
 10
100.4
 20
11.4375
 30
0.0
 11
100.4
 21
-60.18
 31
0.0
  0
LINE
  5
27E
330
27A
100
AcDbEntity
  8
8.Cotations
 62
     0
370
    -2
100
AcDbLine
 10
117.4
 20
7.9375
 30
0.0
 11
117.4
 21
-60.18
 31
0.0
  0
LINE
  5
27F
330
27A
100
AcDbEntity
  8
8.Cotations
 62
     0
370
    -2
100
AcDbLine
 10
100.58
 20
-60.0
 30
0.0
 11
108.2914285714286
 21
-60.0
 31
0.0
  0
LINE
  5
280
330
27A
100
AcDbEntity
  8
8.Cotations
 62
     0
370
    -2
100
AcDbLine
 10
117.22
 20
-60.0
 30
0.0
 11
109.5085714285714
 21
-60.0
 31
0.0
  0
SOLID
  5
281
330
27A
100
AcDbEntity
  8
8.Cotations
 62
     0
100
AcDbTrace
 10
100.58
 20
-59.97
 30
0.0
 11
100.58
 21
-60.03
 31
0.0
 12
100.4
 22
-60.0
 32
0.0
 13
100.4
 23
-60.0
 33
0.0
  0
SOLID
  5
282
330
27A
100
AcDbEntity
  8
8.Cotations
 62
     0
100
AcDbTrace
 10
117.22
 20
-60.03
 30
0.0
 11
117.22
 21
-59.97
 31
0.0
 12
117.4
 22
-60.0
 32
0.0
 13
117.4
 23
-60.0
 33
0.0
  0
MTEXT
  5
283
330
27A
100
AcDbEntity
  8
8.Cotations
 62
     0
100
AcDbMText
 10
108.9
 20
-60.0
 30
0.0
 40
0.18
 41
0.0
 46
0.0
 71
     5
 72
     1
  1
\A1;17.0000
 73
     1
 44
1.0
  0
POINT
  5
284
330
27A
100
AcDbEntity
  8
Defpoints
 62
     0
100
AcDbPoint
 10
100.4
 20
11.5
 30
0.0
  0
POINT
  5
285
330
27A
100
AcDbEntity
  8
Defpoints
 62
     0
100
AcDbPoint
 10
117.4
 20
8.0
 30
0.0
  0
POINT
  5
286
330
27A
100
AcDbEntity
  8
Defpoints
 62
     0
100
AcDbPoint
 10
117.4
 20
-60.0
 30
0.0
  0
ENDBLK
  5
27C
330
27A
100
AcDbEntity
  8
0
100
AcDbBlockEnd
  0
BLOCK
  5
288
330
287
100
AcDbEntity
  8
0
100
AcDbBlockBegin
  2
*D3
 70
     1
 10
0.0
 20
0.0
 30
0.0
  3
*D3
  1
*D3
  0
LINE
  5
28A
330
287
100
AcDbEntity
  8
8.Cotations
 62
     0
370
    -2
100
AcDbLine
 10
100.4
 20
11.4375
 30
0.0
 11
100.4
 21
-100.18
 31
0.0
  0
LINE
  5
28B
330
287
100
AcDbEntity
  8
8.Cotations
 62
     0
370
    -2
100
AcDbLine
 10
241.4000000000001
 20
-38.48321052777717
 30
0.0
 11
241.4000000000001
 21
-100.18
 31
0.0
  0
LINE
  5
28C
330
287
100
AcDbEntity
  8
8.Cotations
 62
     0
370
    -2
100
AcDbLine
 10
100.58
 20
-100.0
 30
0.0
 11
170.2057142857143
 21
-100.0
 31
0.0
  0
LINE
  5
28D
330
287
100
AcDbEntity
  8
8.Cotations
 62
     0
370
    -2
100
AcDbLine
 10
241.2200000000001
 20
-100.0
 30
0.0
 11
171.5942857142857
 21
-100.0
 31
0.0
  0
SOLID
  5
28E
330
287
100
AcDbEntity
  8
8.Cotations
 62
     0
100
AcDbTrace
 10
100.58
 20
-99.97
 30
0.0
 11
100.58
 21
-100.03
 31
0.0
 12
100.4
 22
-100.0
 32
0.0
 13
100.4
 23
-100.0
 33
0.0
  0
SOLID
  5
28F
330
287
100
AcDbEntity
  8
8.Cotations
 62
     0
100
AcDbTrace
 10
241.2200000000001
 20
-100.03
 30
0.0
 11
241.2200000000001
 21
-99.97
 31
0.0
 12
241.4000000000001
 22
-100.0
 32
0.0
 13
241.4000000000001
 23
-100.0
 33
0.0
  0
MTEXT
  5
290
330
287
100
AcDbEntity
  8
8.Cotations
 62
     0
100
AcDbMText
 10
170.9
 20
-100.0
 30
0.0
 40
0.18
 41
0.0
 46
0.0
 71
     5
 72
     1
  1
\A1;141.0000
 73
     1
 44
1.0
  0
POINT
  5
291
330
287
100
AcDbEntity
  8
Defpoints
 62
     0
100
AcDbPoint
 10
100.4
 20
11.5
 30
0.0
  0
POINT
  5
292
330
287
100
AcDbEntity
  8
Defpoints
 62
     0
100
AcDbPoint
 10
241.4000000000001
 20
-38.42071052777717
 30
0.0
  0
POINT
  5
293
330
287
100
AcDbEntity
  8
Defpoints
 62
     0
100
AcDbPoint
 10
241.4000000000001
 20
-100.0
 30
0.0
  0
ENDBLK
  5
289
330
287
100
AcDbEntity
  8
0
100
AcDbBlockEnd
  0
BLOCK
  5
295
330
294
100
AcDbEntity
  8
0
100
AcDbBlockBegin
  2
*D4
 70
     1
 10
0.0
 20
0.0
 30
0.0
  3
*D4
  1
*D4
  0
LINE
  5
297
330
294
100
AcDbEntity
  8
8.Cotations
 62
     0
370
    -2
100
AcDbLine
 10
100.4
 20
11.4375
 30
0.0
 11
100.4
 21
-110.18
 31
0.0
  0
LINE
  5
298
330
294
100
AcDbEntity
  8
8.Cotations
 62
     0
370
    -2
100
AcDbLine
 10
256.1
 20
-46.00789020777718
 30
0.0
 11
256.1
 21
-110.18
 31
0.0
  0
LINE
  5
299
330
294
100
AcDbEntity
  8
8.Cotations
 62
     0
370
    -2
100
AcDbLine
 10
100.58
 20
-110.0
 30
0.0
 11
177.5557142857143
 21
-110.0
 31
0.0
  0
LINE
  5
29A
330
294
100
AcDbEntity
  8
8.Cotations
 62
     0
370
    -2
100
AcDbLine
 10
255.92
 20
-110.0
 30
0.0
 11
178.9442857142857
 21
-110.0
 31
0.0
  0
SOLID
  5
29B
330
294
100
AcDbEntity
  8
8.Cotations
 62
     0
100
AcDbTrace
 10
100.58
 20
-109.97
 30
0.0
 11
100.58
 21
-110.03
 31
0.0
 12
100.4
 22
-110.0
 32
0.0
 13
100.4
 23
-110.0
 33
0.0
  0
SOLID
  5
29C
330
294
100
AcDbEntity
  8
8.Cotations
 62
     0
100
AcDbTrace
 10
255.92
 20
-110.03
 30
0.0
 11
255.92
 21
-109.97
 31
0.0
 12
256.1
 22
-110.0
 32
0.0
 13
256.1
 23
-110.0
 33
0.0
  0
MTEXT
  5
29D
330
294
100
AcDbEntity
  8
8.Cotations
 62
     0
100
AcDbMText
 10
178.25
 20
-110.0
 30
0.0
 40
0.18
 41
0.0
 46
0.0
 71
     5
 72
     1
  1
\A1;155.7000
 73
     1
 44
1.0
  0
POINT
  5
29E
330
294
100
AcDbEntity
  8
Defpoints
 62
     0
100
AcDbPoint
 10
100.4
 20
11.5
 30
0.0
  0
POINT
  5
29F
330
294
100
AcDbEntity
  8
Defpoints
 62
     0
100
AcDbPoint
 10
256.1
 20
-45.94539020777718
 30
0.0
  0
POINT
  5
2A0
330
294
100
AcDbEntity
  8
Defpoints
 62
     0
100
AcDbPoint
 10
256.1
 20
-110.0
 30
0.0
  0
ENDBLK
  5
296
330
294
100
AcDbEntity
  8
0
100
AcDbBlockEnd
  0
BLOCK
  5
2A2
330
2A1
100
AcDbEntity
  8
0
100
AcDbBlockBegin
  2
*D5
 70
     1
 10
0.0
 20
0.0
 30
0.0
  3
*D5
  1
*D5
  0
LINE
  5
2A4
330
2A1
100
AcDbEntity
  8
8.Cotations
 62
     0
370
    -2
100
AcDbLine
 10
100.4
 20
-45.25
 30
0.0
 11
100.4
 21
-120.18
 31
0.0
  0
LINE
  5
2A5
330
2A1
100
AcDbEntity
  8
8.Cotations
 62
     0
370
    -2
100
AcDbLine
 10
280.1
 20
-52.09929756777717
 30
0.0
 11
280.1
 21
-120.18
 31
0.0
  0
LINE
  5
2A6
330
2A1
100
AcDbEntity
  8
8.Cotations
 62
     0
370
    -2
100
AcDbLine
 10
100.58
 20
-120.0
 30
0.0
 11
189.5557142857143
 21
-120.0
 31
0.0
  0
LINE
  5
2A7
330
2A1
100
AcDbEntity
  8
8.Cotations
 62
     0
370
    -2
100
AcDbLine
 10
279.92
 20
-120.0
 30
0.0
 11
190.9442857142857
 21
-120.0
 31
0.0
  0
SOLID
  5
2A8
330
2A1
100
AcDbEntity
  8
8.Cotations
 62
     0
100
AcDbTrace
 10
100.58
 20
-119.97
 30
0.0
 11
100.58
 21
-120.03
 31
0.0
 12
100.4
 22
-120.0
 32
0.0
 13
100.4
 23
-120.0
 33
0.0
  0
SOLID
  5
2A9
330
2A1
100
AcDbEntity
  8
8.Cotations
 62
     0
100
AcDbTrace
 10
279.92
 20
-120.03
 30
0.0
 11
279.92
 21
-119.97
 31
0.0
 12
280.1
 22
-120.0
 32
0.0
 13
280.1
 23
-120.0
 33
0.0
  0
MTEXT
  5
2AA
330
2A1
100
AcDbEntity
  8
8.Cotations
 62
     0
100
AcDbMText
 10
190.25
 20
-120.0
 30
0.0
 40
0.18
 41
0.0
 46
0.0
 71
     5
 72
     1
  1
\A1;179.7000
 73
     1
 44
1.0
  0
POINT
  5
2AB
330
2A1
100
AcDbEntity
  8
Defpoints
 62
     0
100
AcDbPoint
 10
100.4
 20
-45.1875
 30
0.0
  0
POINT
  5
2AC
330
2A1
100
AcDbEntity
  8
Defpoints
 62
     0
100
AcDbPoint
 10
280.1
 20
-52.03679756777717
 30
0.0
  0
POINT
  5
2AD
330
2A1
100
AcDbEntity
  8
Defpoints
 62
     0
100
AcDbPoint
 10
280.1
 20
-120.0
 30
0.0
  0
ENDBLK
  5
2A3
330
2A1
100
AcDbEntity
  8
0
100
AcDbBlockEnd
  0
BLOCK
  5
2AF
330
2AE
100
AcDbEntity
  8
0
100
AcDbBlockBegin
  2
*D6
 70
     1
 10
0.0
 20
0.0
 30
0.0
  3
*D6
  1
*D6
  0
LINE
  5
2B1
330
2AE
100
AcDbEntity
  8
8.Cotations
 62
     0
370
    -2
100
AcDbLine
 10
100.4000000000001
 20
-0.0625
 30
0.0
 11
100.4000000000001
 21
-130.18
 31
0.0
  0
LINE
  5
2B2
330
2AE
100
AcDbEntity
  8
8.Cotations
 62
     0
370
    -2
100
AcDbLine
 10
313.1
 20
-58.19070492777716
 30
0.0
 11
313.1
 21
-130.18
 31
0.0
  0
LINE
  5
2B3
330
2AE
100
AcDbEntity
  8
8.Cotations
 62
     0
370
    -2
100
AcDbLine
 10
100.5800000000001
 20
-130.0
 30
0.0
 11
206.0428571428572
 21
-130.0
 31
0.0
  0
LINE
  5
2B4
330
2AE
100
AcDbEntity
  8
8.Cotations
 62
     0
370
    -2
100
AcDbLine
 10
312.92
 20
-130.0
 30
0.0
 11
207.4571428571429
 21
-130.0
 31
0.0
  0
SOLID
  5
2B5
330
2AE
100
AcDbEntity
  8
8.Cotations
 62
     0
100
AcDbTrace
 10
100.5800000000001
 20
-129.97
 30
0.0
 11
100.5800000000001
 21
-130.03
 31
0.0
 12
100.4000000000001
 22
-130.0
 32
0.0
 13
100.4000000000001
 23
-130.0
 33
0.0
  0
SOLID
  5
2B6
330
2AE
100
AcDbEntity
  8
8.Cotations
 62
     0
100
AcDbTrace
 10
312.92
 20
-130.03
 30
0.0
 11
312.92
 21
-129.97
 31
0.0
 12
313.1
 22
-130.0
 32
0.0
 13
313.1
 23
-130.0
 33
0.0
  0
MTEXT
  5
2B7
330
2AE
100
AcDbEntity
  8
8.Cotations
 62
     0
100
AcDbMText
 10
206.7500000000001
 20
-130.0
 30
0.0
 40
0.18
 41
0.0
 46
0.0
 71
     5
 72
     1
  1
\A1;212.7000
 73
     1
 44
1.0
  0
POINT
  5
2B8
330
2AE
100
AcDbEntity
  8
Defpoints
 62
     0
100
AcDbPoint
 10
100.4000000000001
 20
0.0
 30
0.0
  0
POINT
  5
2B9
330
2AE
100
AcDbEntity
  8
Defpoints
 62
     0
100
AcDbPoint
 10
313.1
 20
-58.12820492777716
 30
0.0
  0
POINT
  5
2BA
330
2AE
100
AcDbEntity
  8
Defpoints
 62
     0
100
AcDbPoint
 10
313.1
 20
-130.0
 30
0.0
  0
ENDBLK
  5
2B0
330
2AE
100
AcDbEntity
  8
0
100
AcDbBlockEnd
  0
BLOCK
  5
2BC
330
2BB
100
AcDbEntity
  8
0
100
AcDbBlockBegin
  2
*D7
 70
     1
 10
0.0
 20
0.0
 30
0.0
  3
*D7
  1
*D7
  0
LINE
  5
2BE
330
2BB
100
AcDbEntity
  8
8.Cotations
 62
     0
370
    -2
100
AcDbLine
 10
100.4
 20
-56.75743260777718
 30
0.0
 11
100.4
 21
-140.3540328959999
 31
0.0
  0
LINE
  5
2BF
330
2BB
100
AcDbEntity
  8
8.Cotations
 62
     0
370
    -2
100
AcDbLine
 10
347.1
 20
-66.5625
 30
0.0
 11
347.1
 21
-140.3540328959999
 31
0.0
  0
LINE
  5
2C0
330
2BB
100
AcDbEntity
  8
8.Cotations
 62
     0
370
    -2
100
AcDbLine
 10
100.58
 20
-140.1740328959999
 30
0.0
 11
223.0428571428571
 21
-140.1740328959999
 31
0.0
  0
LINE
  5
2C1
330
2BB
100
AcDbEntity
  8
8.Cotations
 62
     0
370
    -2
100
AcDbLine
 10
346.92
 20
-140.1740328959999
 30
0.0
 11
224.4571428571429
 21
-140.1740328959999
 31
0.0
  0
SOLID
  5
2C2
330
2BB
100
AcDbEntity
  8
8.Cotations
 62
     0
100
AcDbTrace
 10
100.58
 20
-140.1440328959999
 30
0.0
 11
100.58
 21
-140.2040328959999
 31
0.0
 12
100.4
 22
-140.1740328959999
 32
0.0
 13
100.4
 23
-140.1740328959999
 33
0.0
  0
SOLID
  5
2C3
330
2BB
100
AcDbEntity
  8
8.Cotations
 62
     0
100
AcDbTrace
 10
346.92
 20
-140.2040328959999
 30
0.0
 11
346.92
 21
-140.1440328959999
 31
0.0
 12
347.1
 22
-140.1740328959999
 32
0.0
 13
347.1
 23
-140.1740328959999
 33
0.0
  0
MTEXT
  5
2C4
330
2BB
100
AcDbEntity
  8
8.Cotations
 62
     0
100
AcDbMText
 10
223.75
 20
-140.1740328959999
 30
0.0
 40
0.18
 41
0.0
 46
0.0
 71
     5
 72
     1
  1
\A1;246.7000
 73
     1
 44
1.0
  0
POINT
  5
2C5
330
2BB
100
AcDbEntity
  8
Defpoints
 62
     0
100
AcDbPoint
 10
100.4
 20
-56.69493260777718
 30
0.0
  0
POINT
  5
2C6
330
2BB
100
AcDbEntity
  8
Defpoints
 62
     0
100
AcDbPoint
 10
347.1
 20
-66.5
 30
0.0
  0
POINT
  5
2C7
330
2BB
100
AcDbEntity
  8
Defpoints
 62
     0
100
AcDbPoint
 10
347.1
 20
-140.1740328959999
 30
0.0
  0
ENDBLK
  5
2BD
330
2BB
100
AcDbEntity
  8
0
100
AcDbBlockEnd
  0
BLOCK
  5
2C9
330
2C8
100
AcDbEntity
  8
0
100
AcDbBlockBegin
  2
*D8
 70
     1
 10
0.0
 20
0.0
 30
0.0
  3
*D8
  1
*D8
  0
LINE
  5
2CB
330
2C8
100
AcDbEntity
  8
8.Cotations
 62
     0
370
    -2
100
AcDbLine
 10
100.4
 20
-14.06249999999999
 30
0.0
 11
100.4
 21
-150.18
 31
0.0
  0
LINE
  5
2CC
330
2C8
100
AcDbEntity
  8
8.Cotations
 62
     0
370
    -2
100
AcDbLine
 10
372.6
 20
-70.0625
 30
0.0
 11
372.6
 21
-150.18
 31
0.0
  0
LINE
  5
2CD
330
2C8
100
AcDbEntity
  8
8.Cotations
 62
     0
370
    -2
100
AcDbLine
 10
100.58
 20
-150.0
 30
0.0
 11
235.7928571428571
 21
-150.0
 31
0.0
  0
LINE
  5
2CE
330
2C8
100
AcDbEntity
  8
8.Cotations
 62
     0
370
    -2
100
AcDbLine
 10
372.42
 20
-150.0
 30
0.0
 11
237.2071428571429
 21
-150.0
 31
0.0
  0
SOLID
  5
2CF
330
2C8
100
AcDbEntity
  8
8.Cotations
 62
     0
100
AcDbTrace
 10
100.58
 20
-149.97
 30
0.0
 11
100.58
 21
-150.03
 31
0.0
 12
100.4
 22
-150.0
 32
0.0
 13
100.4
 23
-150.0
 33
0.0
  0
SOLID
  5
2D0
330
2C8
100
AcDbEntity
  8
8.Cotations
 62
     0
100
AcDbTrace
 10
372.42
 20
-150.03
 30
0.0
 11
372.42
 21
-149.97
 31
0.0
 12
372.6
 22
-150.0
 32
0.0
 13
372.6
 23
-150.0
 33
0.0
  0
MTEXT
  5
2D1
330
2C8
100
AcDbEntity
  8
8.Cotations
 62
     0
100
AcDbMText
 10
236.5
 20
-150.0
 30
0.0
 40
0.18
 41
0.0
 46
0.0
 71
     5
 72
     1
  1
\A1;272.2000
 73
     1
 44
1.0
  0
POINT
  5
2D2
330
2C8
100
AcDbEntity
  8
Defpoints
 62
     0
100
AcDbPoint
 10
100.4
 20
-13.99999999999999
 30
0.0
  0
POINT
  5
2D3
330
2C8
100
AcDbEntity
  8
Defpoints
 62
     0
100
AcDbPoint
 10
372.6
 20
-70.0
 30
0.0
  0
POINT
  5
2D4
330
2C8
100
AcDbEntity
  8
Defpoints
 62
     0
100
AcDbPoint
 10
372.6
 20
-150.0
 30
0.0
  0
ENDBLK
  5
2CA
330
2C8
100
AcDbEntity
  8
0
100
AcDbBlockEnd
  0
BLOCK
  5
2D6
330
2D5
100
AcDbEntity
  8
0
100
AcDbBlockBegin
  2
*D9
 70
     1
 10
0.0
 20
0.0
 30
0.0
  3
*D9
  1
*D9
  0
LINE
  5
2D8
330
2D5
100
AcDbEntity
  8
8.Cotations
 62
     0
370
    -2
100
AcDbLine
 10
100.4
 20
-0.0625
 30
0.0
 11
100.4
 21
-160.18
 31
0.0
  0
LINE
  5
2D9
330
2D5
100
AcDbEntity
  8
8.Cotations
 62
     0
370
    -2
100
AcDbLine
 10
404.0
 20
-70.0625
 30
0.0
 11
404.0
 21
-160.18
 31
0.0
  0
LINE
  5
2DA
330
2D5
100
AcDbEntity
  8
8.Cotations
 62
     0
370
    -2
100
AcDbLine
 10
100.58
 20
-160.0
 30
0.0
 11
251.4928571428571
 21
-160.0
 31
0.0
  0
LINE
  5
2DB
330
2D5
100
AcDbEntity
  8
8.Cotations
 62
     0
370
    -2
100
AcDbLine
 10
403.82
 20
-160.0
 30
0.0
 11
252.9071428571428
 21
-160.0
 31
0.0
  0
SOLID
  5
2DC
330
2D5
100
AcDbEntity
  8
8.Cotations
 62
     0
100
AcDbTrace
 10
100.58
 20
-159.97
 30
0.0
 11
100.58
 21
-160.03
 31
0.0
 12
100.4
 22
-160.0
 32
0.0
 13
100.4
 23
-160.0
 33
0.0
  0
SOLID
  5
2DD
330
2D5
100
AcDbEntity
  8
8.Cotations
 62
     0
100
AcDbTrace
 10
403.82
 20
-160.03
 30
0.0
 11
403.82
 21
-159.97
 31
0.0
 12
404.0
 22
-160.0
 32
0.0
 13
404.0
 23
-160.0
 33
0.0
  0
MTEXT
  5
2DE
330
2D5
100
AcDbEntity
  8
8.Cotations
 62
     0
100
AcDbMText
 10
252.2
 20
-160.0
 30
0.0
 40
0.18
 41
0.0
 46
0.0
 71
     5
 72
     1
  1
\A1;303.6000
 73
     1
 44
1.0
  0
POINT
  5
2DF
330
2D5
100
AcDbEntity
  8
Defpoints
 62
     0
100
AcDbPoint
 10
100.4
 20
0.0
 30
0.0
  0
POINT
  5
2E0
330
2D5
100
AcDbEntity
  8
Defpoints
 62
     0
100
AcDbPoint
 10
404.0
 20
-70.0
 30
0.0
  0
POINT
  5
2E1
330
2D5
100
AcDbEntity
  8
Defpoints
 62
     0
100
AcDbPoint
 10
404.0
 20
-160.0
 30
0.0
  0
ENDBLK
  5
2D7
330
2D5
100
AcDbEntity
  8
0
100
AcDbBlockEnd
  0
BLOCK
  5
2E3
330
2E2
100
AcDbEntity
  8
0
100
AcDbBlockBegin
  2
*D10
 70
     1
 10
0.0
 20
0.0
 30
0.0
  3
*D10
  1
*D10
  0
LINE
  5
2E5
330
2E2
100
AcDbEntity
  8
8.Cotations
 62
     0
370
    -2
100
AcDbLine
 10
100.4
 20
-0.0625
 30
0.0
 11
100.4
 21
-170.18
 31
0.0
  0
LINE
  5
2E6
330
2E2
100
AcDbEntity
  8
8.Cotations
 62
     0
370
    -2
100
AcDbLine
 10
449.0
 20
-70.0625
 30
0.0
 11
449.0
 21
-170.18
 31
0.0
  0
LINE
  5
2E7
330
2E2
100
AcDbEntity
  8
8.Cotations
 62
     0
370
    -2
100
AcDbLine
 10
100.58
 20
-170.0
 30
0.0
 11
273.9928571428571
 21
-170.0
 31
0.0
  0
LINE
  5
2E8
330
2E2
100
AcDbEntity
  8
8.Cotations
 62
     0
370
    -2
100
AcDbLine
 10
448.82
 20
-170.0
 30
0.0
 11
275.4071428571428
 21
-170.0
 31
0.0
  0
SOLID
  5
2E9
330
2E2
100
AcDbEntity
  8
8.Cotations
 62
     0
100
AcDbTrace
 10
100.58
 20
-169.97
 30
0.0
 11
100.58
 21
-170.03
 31
0.0
 12
100.4
 22
-170.0
 32
0.0
 13
100.4
 23
-170.0
 33
0.0
  0
SOLID
  5
2EA
330
2E2
100
AcDbEntity
  8
8.Cotations
 62
     0
100
AcDbTrace
 10
448.82
 20
-170.03
 30
0.0
 11
448.82
 21
-169.97
 31
0.0
 12
449.0
 22
-170.0
 32
0.0
 13
449.0
 23
-170.0
 33
0.0
  0
MTEXT
  5
2EB
330
2E2
100
AcDbEntity
  8
8.Cotations
 62
     0
100
AcDbMText
 10
274.7
 20
-170.0
 30
0.0
 40
0.18
 41
0.0
 46
0.0
 71
     5
 72
     1
  1
\A1;348.6000
 73
     1
 44
1.0
  0
POINT
  5
2EC
330
2E2
100
AcDbEntity
  8
Defpoints
 62
     0
100
AcDbPoint
 10
100.4
 20
0.0
 30
0.0
  0
POINT
  5
2ED
330
2E2
100
AcDbEntity
  8
Defpoints
 62
     0
100
AcDbPoint
 10
449.0
 20
-70.0
 30
0.0
  0
POINT
  5
2EE
330
2E2
100
AcDbEntity
  8
Defpoints
 62
     0
100
AcDbPoint
 10
449.0
 20
-170.0
 30
0.0
  0
ENDBLK
  5
2E4
330
2E2
100
AcDbEntity
  8
0
100
AcDbBlockEnd
  0
BLOCK
  5
2F0
330
2EF
100
AcDbEntity
  8
0
100
AcDbBlockBegin
  2
*D11
 70
     1
 10
0.0
 20
0.0
 30
0.0
  3
*D11
  1
*D11
  0
LINE
  5
2F2
330
2EF
100
AcDbEntity
  8
8.Cotations
 62
     0
370
    -2
100
AcDbLine
 10
100.4
 20
13.9375
 30
0.0
 11
100.4
 21
-180.18
 31
0.0
  0
LINE
  5
2F3
330
2EF
100
AcDbEntity
  8
8.Cotations
 62
     0
370
    -2
100
AcDbLine
 10
473.9999999999999
 20
7.9375
 30
0.0
 11
473.9999999999999
 21
-180.18
 31
0.0
  0
LINE
  5
2F4
330
2EF
100
AcDbEntity
  8
8.Cotations
 62
     0
370
    -2
100
AcDbLine
 10
100.58
 20
-180.0
 30
0.0
 11
286.4928571428571
 21
-180.0
 31
0.0
  0
LINE
  5
2F5
330
2EF
100
AcDbEntity
  8
8.Cotations
 62
     0
370
    -2
100
AcDbLine
 10
473.8199999999999
 20
-180.0
 30
0.0
 11
287.9071428571428
 21
-180.0
 31
0.0
  0
SOLID
  5
2F6
330
2EF
100
AcDbEntity
  8
8.Cotations
 62
     0
100
AcDbTrace
 10
100.58
 20
-179.97
 30
0.0
 11
100.58
 21
-180.03
 31
0.0
 12
100.4
 22
-180.0
 32
0.0
 13
100.4
 23
-180.0
 33
0.0
  0
SOLID
  5
2F7
330
2EF
100
AcDbEntity
  8
8.Cotations
 62
     0
100
AcDbTrace
 10
473.8199999999999
 20
-180.03
 30
0.0
 11
473.8199999999999
 21
-179.97
 31
0.0
 12
473.9999999999999
 22
-180.0
 32
0.0
 13
473.9999999999999
 23
-180.0
 33
0.0
  0
MTEXT
  5
2F8
330
2EF
100
AcDbEntity
  8
8.Cotations
 62
     0
100
AcDbMText
 10
287.1999999999999
 20
-180.0
 30
0.0
 40
0.18
 41
0.0
 46
0.0
 71
     5
 72
     1
  1
\A1;373.6000
 73
     1
 44
1.0
  0
POINT
  5
2F9
330
2EF
100
AcDbEntity
  8
Defpoints
 62
     0
100
AcDbPoint
 10
100.4
 20
14.0
 30
0.0
  0
POINT
  5
2FA
330
2EF
100
AcDbEntity
  8
Defpoints
 62
     0
100
AcDbPoint
 10
473.9999999999999
 20
8.0
 30
0.0
  0
POINT
  5
2FB
330
2EF
100
AcDbEntity
  8
Defpoints
 62
     0
100
AcDbPoint
 10
473.9999999999999
 20
-180.0
 30
0.0
  0
ENDBLK
  5
2F1
330
2EF
100
AcDbEntity
  8
0
100
AcDbBlockEnd
  0
BLOCK
  5
2FD
330
2FC
100
AcDbEntity
  8
0
100
AcDbBlockBegin
  2
*D12
 70
     1
 10
0.0
 20
0.0
 30
0.0
  3
*D12
  1
*D12
  0
LINE
  5
2FF
330
2FC
100
AcDbEntity
  8
8.Cotations
 62
     0
370
    -2
100
AcDbLine
 10
100.4000000000001
 20
11.4375
 30
0.0
 11
100.4000000000001
 21
-190.18
 31
0.0
  0
LINE
  5
300
330
2FC
100
AcDbEntity
  8
8.Cotations
 62
     0
370
    -2
100
AcDbLine
 10
488.0
 20
-70.0625
 30
0.0
 11
488.0
 21
-190.18
 31
0.0
  0
LINE
  5
301
330
2FC
100
AcDbEntity
  8
8.Cotations
 62
     0
370
    -2
100
AcDbLine
 10
100.5800000000001
 20
-190.0
 30
0.0
 11
293.4928571428572
 21
-190.0
 31
0.0
  0
LINE
  5
302
330
2FC
100
AcDbEntity
  8
8.Cotations
 62
     0
370
    -2
100
AcDbLine
 10
487.82
 20
-190.0
 30
0.0
 11
294.9071428571429
 21
-190.0
 31
0.0
  0
SOLID
  5
303
330
2FC
100
AcDbEntity
  8
8.Cotations
 62
     0
100
AcDbTrace
 10
100.5800000000001
 20
-189.97
 30
0.0
 11
100.5800000000001
 21
-190.03
 31
0.0
 12
100.4000000000001
 22
-190.0
 32
0.0
 13
100.4000000000001
 23
-190.0
 33
0.0
  0
SOLID
  5
304
330
2FC
100
AcDbEntity
  8
8.Cotations
 62
     0
100
AcDbTrace
 10
487.82
 20
-190.03
 30
0.0
 11
487.82
 21
-189.97
 31
0.0
 12
488.0
 22
-190.0
 32
0.0
 13
488.0
 23
-190.0
 33
0.0
  0
MTEXT
  5
305
330
2FC
100
AcDbEntity
  8
8.Cotations
 62
     0
100
AcDbMText
 10
294.2
 20
-190.0
 30
0.0
 40
0.18
 41
0.0
 46
0.0
 71
     5
 72
     1
  1
\A1;387.6000
 73
     1
 44
1.0
  0
POINT
  5
306
330
2FC
100
AcDbEntity
  8
Defpoints
 62
     0
100
AcDbPoint
 10
100.4000000000001
 20
11.5
 30
0.0
  0
POINT
  5
307
330
2FC
100
AcDbEntity
  8
Defpoints
 62
     0
100
AcDbPoint
 10
488.0
 20
-70.0
 30
0.0
  0
POINT
  5
308
330
2FC
100
AcDbEntity
  8
Defpoints
 62
     0
100
AcDbPoint
 10
488.0
 20
-190.0
 30
0.0
  0
ENDBLK
  5
2FE
330
2FC
100
AcDbEntity
  8
0
100
AcDbBlockEnd
  0
BLOCK
  5
30A
330
309
100
AcDbEntity
  8
0
100
AcDbBlockBegin
  2
*D13
 70
     1
 10
0.0
 20
0.0
 30
0.0
  3
*D13
  1
*D13
  0
LINE
  5
30C
330
309
100
AcDbEntity
  8
8.Cotations
 62
     0
370
    -2
100
AcDbLine
 10
100.4000000000001
 20
-0.0625
 30
0.0
 11
100.4000000000001
 21
-200.18
 31
0.0
  0
LINE
  5
30D
330
309
100
AcDbEntity
  8
8.Cotations
 62
     0
370
    -2
100
AcDbLine
 10
550.0
 20
-70.0625
 30
0.0
 11
550.0
 21
-200.18
 31
0.0
  0
LINE
  5
30E
330
309
100
AcDbEntity
  8
8.Cotations
 62
     0
370
    -2
100
AcDbLine
 10
100.5800000000001
 20
-200.0
 30
0.0
 11
324.4928571428572
 21
-200.0
 31
0.0
  0
LINE
  5
30F
330
309
100
AcDbEntity
  8
8.Cotations
 62
     0
370
    -2
100
AcDbLine
 10
549.82
 20
-200.0
 30
0.0
 11
325.9071428571429
 21
-200.0
 31
0.0
  0
SOLID
  5
310
330
309
100
AcDbEntity
  8
8.Cotations
 62
     0
100
AcDbTrace
 10
100.5800000000001
 20
-199.97
 30
0.0
 11
100.5800000000001
 21
-200.03
 31
0.0
 12
100.4000000000001
 22
-200.0
 32
0.0
 13
100.4000000000001
 23
-200.0
 33
0.0
  0
SOLID
  5
311
330
309
100
AcDbEntity
  8
8.Cotations
 62
     0
100
AcDbTrace
 10
549.82
 20
-200.03
 30
0.0
 11
549.82
 21
-199.97
 31
0.0
 12
550.0
 22
-200.0
 32
0.0
 13
550.0
 23
-200.0
 33
0.0
  0
MTEXT
  5
312
330
309
100
AcDbEntity
  8
8.Cotations
 62
     0
100
AcDbMText
 10
325.2
 20
-200.0
 30
0.0
 40
0.18
 41
0.0
 46
0.0
 71
     5
 72
     1
  1
\A1;449.6000
 73
     1
 44
1.0
  0
POINT
  5
313
330
309
100
AcDbEntity
  8
Defpoints
 62
     0
100
AcDbPoint
 10
100.4000000000001
 20
0.0
 30
0.0
  0
POINT
  5
314
330
309
100
AcDbEntity
  8
Defpoints
 62
     0
100
AcDbPoint
 10
550.0
 20
-70.0
 30
0.0
  0
POINT
  5
315
330
309
100
AcDbEntity
  8
Defpoints
 62
     0
100
AcDbPoint
 10
550.0
 20
-200.0
 30
0.0
  0
ENDBLK
  5
30B
330
309
100
AcDbEntity
  8
0
100
AcDbBlockEnd
  0
BLOCK
  5
317
330
316
100
AcDbEntity
  8
0
100
AcDbBlockBegin
  2
*D14
 70
     1
 10
0.0
 20
0.0
 30
0.0
  3
*D14
  1
*D14
  0
LINE
  5
319
330
316
100
AcDbEntity
  8
8.Cotations
 62
     0
370
    -2
100
AcDbLine
 10
117.4
 20
-59.9375
 30
0.0
 11
117.4
 21
-59.82
 31
0.0
  0
LINE
  5
31A
330
316
100
AcDbEntity
  8
8.Cotations
 62
     0
370
    -2
100
AcDbLine
 10
241.4000000000001
 20
-59.93750000000001
 30
0.0
 11
241.4000000000001
 21
-59.82000000000001
 31
0.0
  0
LINE
  5
31B
330
316
100
AcDbEntity
  8
8.Cotations
 62
     0
370
    -2
100
AcDbLine
 10
117.58
 20
-60.0
 30
0.0
 11
178.7057142857143
 21
-60.0
 31
0.0
  0
LINE
  5
31C
330
316
100
AcDbEntity
  8
8.Cotations
 62
     0
370
    -2
100
AcDbLine
 10
241.2200000000001
 20
-60.00000000000001
 30
0.0
 11
180.0942857142857
 21
-60.00000000000001
 31
0.0
  0
SOLID
  5
31D
330
316
100
AcDbEntity
  8
8.Cotations
 62
     0
100
AcDbTrace
 10
117.58
 20
-59.97
 30
0.0
 11
117.58
 21
-60.03
 31
0.0
 12
117.4
 22
-60.0
 32
0.0
 13
117.4
 23
-60.0
 33
0.0
  0
SOLID
  5
31E
330
316
100
AcDbEntity
  8
8.Cotations
 62
     0
100
AcDbTrace
 10
241.2200000000001
 20
-60.03000000000001
 30
0.0
 11
241.2200000000001
 21
-59.97000000000001
 31
0.0
 12
241.4000000000001
 22
-60.00000000000001
 32
0.0
 13
241.4000000000001
 23
-60.00000000000001
 33
0.0
  0
MTEXT
  5
31F
330
316
100
AcDbEntity
  8
8.Cotations
 62
     0
100
AcDbMText
 10
179.4
 20
-60.0
 30
0.0
 40
0.18
 41
0.0
 46
0.0
 71
     5
 72
     1
  1
\A1;124.0000
 73
     1
 44
1.0
  0
POINT
  5
320
330
316
100
AcDbEntity
  8
Defpoints
 62
     0
100
AcDbPoint
 10
117.4
 20
-60.0
 30
0.0
  0
POINT
  5
321
330
316
100
AcDbEntity
  8
Defpoints
 62
     0
100
AcDbPoint
 10
241.4000000000001
 20
-60.00000000000001
 30
0.0
  0
POINT
  5
322
330
316
100
AcDbEntity
  8
Defpoints
 62
     0
100
AcDbPoint
 10
241.4000000000001
 20
-60.00000000000001
 30
0.0
  0
ENDBLK
  5
318
330
316
100
AcDbEntity
  8
0
100
AcDbBlockEnd
  0
BLOCK
  5
324
330
323
100
AcDbEntity
  8
0
100
AcDbBlockBegin
  2
*D15
 70
     1
 10
0.0
 20
0.0
 30
0.0
  3
*D15
  1
*D15
  0
LINE
  5
326
330
323
100
AcDbEntity
  8
8.Cotations
 62
     0
370
    -2
100
AcDbLine
 10
241.4000000000001
 20
-59.93750000000001
 30
0.0
 11
241.4000000000001
 21
-59.82000000000001
 31
0.0
  0
LINE
  5
327
330
323
100
AcDbEntity
  8
8.Cotations
 62
     0
370
    -2
100
AcDbLine
 10
256.1
 20
-59.9375
 30
0.0
 11
256.1
 21
-59.82
 31
0.0
  0
LINE
  5
328
330
323
100
AcDbEntity
  8
8.Cotations
 62
     0
370
    -2
100
AcDbLine
 10
241.5800000000001
 20
-60.00000000000001
 30
0.0
 11
248.1414285714286
 21
-60.00000000000001
 31
0.0
  0
LINE
  5
329
330
323
100
AcDbEntity
  8
8.Cotations
 62
     0
370
    -2
100
AcDbLine
 10
255.92
 20
-60.0
 30
0.0
 11
249.3585714285715
 21
-60.0
 31
0.0
  0
SOLID
  5
32A
330
323
100
AcDbEntity
  8
8.Cotations
 62
     0
100
AcDbTrace
 10
241.5800000000001
 20
-59.97000000000001
 30
0.0
 11
241.5800000000001
 21
-60.03000000000001
 31
0.0
 12
241.4000000000001
 22
-60.00000000000001
 32
0.0
 13
241.4000000000001
 23
-60.00000000000001
 33
0.0
  0
SOLID
  5
32B
330
323
100
AcDbEntity
  8
8.Cotations
 62
     0
100
AcDbTrace
 10
255.92
 20
-60.03
 30
0.0
 11
255.92
 21
-59.97
 31
0.0
 12
256.1
 22
-60.0
 32
0.0
 13
256.1
 23
-60.0
 33
0.0
  0
MTEXT
  5
32C
330
323
100
AcDbEntity
  8
8.Cotations
 62
     0
100
AcDbMText
 10
248.7500000000001
 20
-60.0
 30
0.0
 40
0.18
 41
0.0
 46
0.0
 71
     5
 72
     1
  1
\A1;14.7000
 73
     1
 44
1.0
  0
POINT
  5
32D
330
323
100
AcDbEntity
  8
Defpoints
 62
     0
100
AcDbPoint
 10
241.4000000000001
 20
-60.00000000000001
 30
0.0
  0
POINT
  5
32E
330
323
100
AcDbEntity
  8
Defpoints
 62
     0
100
AcDbPoint
 10
256.1
 20
-60.0
 30
0.0
  0
POINT
  5
32F
330
323
100
AcDbEntity
  8
Defpoints
 62
     0
100
AcDbPoint
 10
256.1
 20
-60.0
 30
0.0
  0
ENDBLK
  5
325
330
323
100
AcDbEntity
  8
0
100
AcDbBlockEnd
  0
BLOCK
  5
331
330
330
100
AcDbEntity
  8
0
100
AcDbBlockBegin
  2
*D16
 70
     1
 10
0.0
 20
0.0
 30
0.0
  3
*D16
  1
*D16
  0
LINE
  5
333
330
330
100
AcDbEntity
  8
8.Cotations
 62
     0
370
    -2
100
AcDbLine
 10
256.1
 20
-59.93750000000001
 30
0.0
 11
256.1
 21
-59.82000000000001
 31
0.0
  0
LINE
  5
334
330
330
100
AcDbEntity
  8
8.Cotations
 62
     0
370
    -2
100
AcDbLine
 10
280.1
 20
-59.9375
 30
0.0
 11
280.1
 21
-59.82
 31
0.0
  0
LINE
  5
335
330
330
100
AcDbEntity
  8
8.Cotations
 62
     0
370
    -2
100
AcDbLine
 10
256.28
 20
-60.00000000000001
 30
0.0
 11
267.4785714285715
 21
-60.00000000000001
 31
0.0
  0
LINE
  5
336
330
330
100
AcDbEntity
  8
8.Cotations
 62
     0
370
    -2
100
AcDbLine
 10
279.92
 20
-60.0
 30
0.0
 11
268.7214285714286
 21
-60.0
 31
0.0
  0
SOLID
  5
337
330
330
100
AcDbEntity
  8
8.Cotations
 62
     0
100
AcDbTrace
 10
256.28
 20
-59.97000000000001
 30
0.0
 11
256.28
 21
-60.03000000000001
 31
0.0
 12
256.1
 22
-60.00000000000001
 32
0.0
 13
256.1
 23
-60.00000000000001
 33
0.0
  0
SOLID
  5
338
330
330
100
AcDbEntity
  8
8.Cotations
 62
     0
100
AcDbTrace
 10
279.92
 20
-60.03
 30
0.0
 11
279.92
 21
-59.97
 31
0.0
 12
280.1
 22
-60.0
 32
0.0
 13
280.1
 23
-60.0
 33
0.0
  0
MTEXT
  5
339
330
330
100
AcDbEntity
  8
8.Cotations
 62
     0
100
AcDbMText
 10
268.1
 20
-60.0
 30
0.0
 40
0.18
 41
0.0
 46
0.0
 71
     5
 72
     1
  1
\A1;24.0000
 73
     1
 44
1.0
  0
POINT
  5
33A
330
330
100
AcDbEntity
  8
Defpoints
 62
     0
100
AcDbPoint
 10
256.1
 20
-60.00000000000001
 30
0.0
  0
POINT
  5
33B
330
330
100
AcDbEntity
  8
Defpoints
 62
     0
100
AcDbPoint
 10
280.1
 20
-60.0
 30
0.0
  0
POINT
  5
33C
330
330
100
AcDbEntity
  8
Defpoints
 62
     0
100
AcDbPoint
 10
280.1
 20
-60.0
 30
0.0
  0
ENDBLK
  5
332
330
330
100
AcDbEntity
  8
0
100
AcDbBlockEnd
  0
BLOCK
  5
33E
330
33D
100
AcDbEntity
  8
0
100
AcDbBlockBegin
  2
*D17
 70
     1
 10
0.0
 20
0.0
 30
0.0
  3
*D17
  1
*D17
  0
LINE
  5
340
330
33D
100
AcDbEntity
  8
8.Cotations
 62
     0
370
    -2
100
AcDbLine
 10
280.1000000000001
 20
-59.93750000000001
 30
0.0
 11
280.1000000000001
 21
-59.82000000000001
 31
0.0
  0
LINE
  5
341
330
33D
100
AcDbEntity
  8
8.Cotations
 62
     0
370
    -2
100
AcDbLine
 10
313.1
 20
-59.9375
 30
0.0
 11
313.1
 21
-59.82
 31
0.0
  0
LINE
  5
342
330
33D
100
AcDbEntity
  8
8.Cotations
 62
     0
370
    -2
100
AcDbLine
 10
280.2800000000001
 20
-60.00000000000001
 30
0.0
 11
295.9785714285715
 21
-60.00000000000001
 31
0.0
  0
LINE
  5
343
330
33D
100
AcDbEntity
  8
8.Cotations
 62
     0
370
    -2
100
AcDbLine
 10
312.92
 20
-60.0
 30
0.0
 11
297.2214285714286
 21
-60.0
 31
0.0
  0
SOLID
  5
344
330
33D
100
AcDbEntity
  8
8.Cotations
 62
     0
100
AcDbTrace
 10
280.2800000000001
 20
-59.97000000000001
 30
0.0
 11
280.2800000000001
 21
-60.03000000000001
 31
0.0
 12
280.1000000000001
 22
-60.00000000000001
 32
0.0
 13
280.1000000000001
 23
-60.00000000000001
 33
0.0
  0
SOLID
  5
345
330
33D
100
AcDbEntity
  8
8.Cotations
 62
     0
100
AcDbTrace
 10
312.92
 20
-60.03
 30
0.0
 11
312.92
 21
-59.97
 31
0.0
 12
313.1
 22
-60.0
 32
0.0
 13
313.1
 23
-60.0
 33
0.0
  0
MTEXT
  5
346
330
33D
100
AcDbEntity
  8
8.Cotations
 62
     0
100
AcDbMText
 10
296.6
 20
-60.0
 30
0.0
 40
0.18
 41
0.0
 46
0.0
 71
     5
 72
     1
  1
\A1;33.0000
 73
     1
 44
1.0
  0
POINT
  5
347
330
33D
100
AcDbEntity
  8
Defpoints
 62
     0
100
AcDbPoint
 10
280.1000000000001
 20
-60.00000000000001
 30
0.0
  0
POINT
  5
348
330
33D
100
AcDbEntity
  8
Defpoints
 62
     0
100
AcDbPoint
 10
313.1
 20
-60.0
 30
0.0
  0
POINT
  5
349
330
33D
100
AcDbEntity
  8
Defpoints
 62
     0
100
AcDbPoint
 10
313.1
 20
-60.0
 30
0.0
  0
ENDBLK
  5
33F
330
33D
100
AcDbEntity
  8
0
100
AcDbBlockEnd
  0
BLOCK
  5
34B
330
34A
100
AcDbEntity
  8
0
100
AcDbBlockBegin
  2
*D18
 70
     1
 10
0.0
 20
0.0
 30
0.0
  3
*D18
  1
*D18
  0
LINE
  5
34D
330
34A
100
AcDbEntity
  8
8.Cotations
 62
     0
370
    -2
100
AcDbLine
 10
313.0999999999999
 20
-59.93749999999999
 30
0.0
 11
313.0999999999999
 21
-59.81999999999999
 31
0.0
  0
LINE
  5
34E
330
34A
100
AcDbEntity
  8
8.Cotations
 62
     0
370
    -2
100
AcDbLine
 10
347.1
 20
-59.9375
 30
0.0
 11
347.1
 21
-59.82
 31
0.0
  0
LINE
  5
34F
330
34A
100
AcDbEntity
  8
8.Cotations
 62
     0
370
    -2
100
AcDbLine
 10
313.2799999999999
 20
-59.99999999999999
 30
0.0
 11
329.4785714285714
 21
-59.99999999999999
 31
0.0
  0
LINE
  5
350
330
34A
100
AcDbEntity
  8
8.Cotations
 62
     0
370
    -2
100
AcDbLine
 10
346.92
 20
-60.0
 30
0.0
 11
330.7214285714285
 21
-60.0
 31
0.0
  0
SOLID
  5
351
330
34A
100
AcDbEntity
  8
8.Cotations
 62
     0
100
AcDbTrace
 10
313.2799999999999
 20
-59.96999999999999
 30
0.0
 11
313.2799999999999
 21
-60.02999999999999
 31
0.0
 12
313.0999999999999
 22
-59.99999999999999
 32
0.0
 13
313.0999999999999
 23
-59.99999999999999
 33
0.0
  0
SOLID
  5
352
330
34A
100
AcDbEntity
  8
8.Cotations
 62
     0
100
AcDbTrace
 10
346.92
 20
-60.03
 30
0.0
 11
346.92
 21
-59.97
 31
0.0
 12
347.1
 22
-60.0
 32
0.0
 13
347.1
 23
-60.0
 33
0.0
  0
MTEXT
  5
353
330
34A
100
AcDbEntity
  8
8.Cotations
 62
     0
100
AcDbMText
 10
330.1
 20
-60.0
 30
0.0
 40
0.18
 41
0.0
 46
0.0
 71
     5
 72
     1
  1
\A1;34.0000
 73
     1
 44
1.0
  0
POINT
  5
354
330
34A
100
AcDbEntity
  8
Defpoints
 62
     0
100
AcDbPoint
 10
313.0999999999999
 20
-59.99999999999999
 30
0.0
  0
POINT
  5
355
330
34A
100
AcDbEntity
  8
Defpoints
 62
     0
100
AcDbPoint
 10
347.1
 20
-60.0
 30
0.0
  0
POINT
  5
356
330
34A
100
AcDbEntity
  8
Defpoints
 62
     0
100
AcDbPoint
 10
347.1
 20
-60.0
 30
0.0
  0
ENDBLK
  5
34C
330
34A
100
AcDbEntity
  8
0
100
AcDbBlockEnd
  0
BLOCK
  5
358
330
357
100
AcDbEntity
  8
0
100
AcDbBlockBegin
  2
*D19
 70
     1
 10
0.0
 20
0.0
 30
0.0
  3
*D19
  1
*D19
  0
LINE
  5
35A
330
357
100
AcDbEntity
  8
8.Cotations
 62
     0
370
    -2
100
AcDbLine
 10
347.1000000000001
 20
-59.93750000000001
 30
0.0
 11
347.1000000000001
 21
-59.82000000000001
 31
0.0
  0
LINE
  5
35B
330
357
100
AcDbEntity
  8
8.Cotations
 62
     0
370
    -2
100
AcDbLine
 10
372.6
 20
-59.9375
 30
0.0
 11
372.6
 21
-59.82
 31
0.0
  0
LINE
  5
35C
330
357
100
AcDbEntity
  8
8.Cotations
 62
     0
370
    -2
100
AcDbLine
 10
347.2800000000001
 20
-60.00000000000001
 30
0.0
 11
359.2285714285715
 21
-60.00000000000001
 31
0.0
  0
LINE
  5
35D
330
357
100
AcDbEntity
  8
8.Cotations
 62
     0
370
    -2
100
AcDbLine
 10
372.42
 20
-60.0
 30
0.0
 11
360.4714285714286
 21
-60.0
 31
0.0
  0
SOLID
  5
35E
330
357
100
AcDbEntity
  8
8.Cotations
 62
     0
100
AcDbTrace
 10
347.2800000000001
 20
-59.97000000000001
 30
0.0
 11
347.2800000000001
 21
-60.03000000000001
 31
0.0
 12
347.1000000000001
 22
-60.00000000000001
 32
0.0
 13
347.1000000000001
 23
-60.00000000000001
 33
0.0
  0
SOLID
  5
35F
330
357
100
AcDbEntity
  8
8.Cotations
 62
     0
100
AcDbTrace
 10
372.42
 20
-60.03
 30
0.0
 11
372.42
 21
-59.97
 31
0.0
 12
372.6
 22
-60.0
 32
0.0
 13
372.6
 23
-60.0
 33
0.0
  0
MTEXT
  5
360
330
357
100
AcDbEntity
  8
8.Cotations
 62
     0
100
AcDbMText
 10
359.85
 20
-60.0
 30
0.0
 40
0.18
 41
0.0
 46
0.0
 71
     5
 72
     1
  1
\A1;25.5000
 73
     1
 44
1.0
  0
POINT
  5
361
330
357
100
AcDbEntity
  8
Defpoints
 62
     0
100
AcDbPoint
 10
347.1000000000001
 20
-60.00000000000001
 30
0.0
  0
POINT
  5
362
330
357
100
AcDbEntity
  8
Defpoints
 62
     0
100
AcDbPoint
 10
372.6
 20
-60.0
 30
0.0
  0
POINT
  5
363
330
357
100
AcDbEntity
  8
Defpoints
 62
     0
100
AcDbPoint
 10
372.6
 20
-60.0
 30
0.0
  0
ENDBLK
  5
359
330
357
100
AcDbEntity
  8
0
100
AcDbBlockEnd
  0
BLOCK
  5
365
330
364
100
AcDbEntity
  8
0
100
AcDbBlockBegin
  2
*D20
 70
     1
 10
0.0
 20
0.0
 30
0.0
  3
*D20
  1
*D20
  0
LINE
  5
367
330
364
100
AcDbEntity
  8
8.Cotations
 62
     0
370
    -2
100
AcDbLine
 10
372.6
 20
-59.93750000000001
 30
0.0
 11
372.6
 21
-59.82000000000001
 31
0.0
  0
LINE
  5
368
330
364
100
AcDbEntity
  8
8.Cotations
 62
     0
370
    -2
100
AcDbLine
 10
404.0
 20
-59.9375
 30
0.0
 11
404.0
 21
-59.82
 31
0.0
  0
LINE
  5
369
330
364
100
AcDbEntity
  8
8.Cotations
 62
     0
370
    -2
100
AcDbLine
 10
372.78
 20
-60.00000000000001
 30
0.0
 11
387.6785714285714
 21
-60.00000000000001
 31
0.0
  0
LINE
  5
36A
330
364
100
AcDbEntity
  8
8.Cotations
 62
     0
370
    -2
100
AcDbLine
 10
403.82
 20
-60.0
 30
0.0
 11
388.9214285714286
 21
-60.0
 31
0.0
  0
SOLID
  5
36B
330
364
100
AcDbEntity
  8
8.Cotations
 62
     0
100
AcDbTrace
 10
372.78
 20
-59.97000000000001
 30
0.0
 11
372.78
 21
-60.03000000000001
 31
0.0
 12
372.6
 22
-60.00000000000001
 32
0.0
 13
372.6
 23
-60.00000000000001
 33
0.0
  0
SOLID
  5
36C
330
364
100
AcDbEntity
  8
8.Cotations
 62
     0
100
AcDbTrace
 10
403.82
 20
-60.03
 30
0.0
 11
403.82
 21
-59.97
 31
0.0
 12
404.0
 22
-60.0
 32
0.0
 13
404.0
 23
-60.0
 33
0.0
  0
MTEXT
  5
36D
330
364
100
AcDbEntity
  8
8.Cotations
 62
     0
100
AcDbMText
 10
388.3
 20
-60.0
 30
0.0
 40
0.18
 41
0.0
 46
0.0
 71
     5
 72
     1
  1
\A1;31.4000
 73
     1
 44
1.0
  0
POINT
  5
36E
330
364
100
AcDbEntity
  8
Defpoints
 62
     0
100
AcDbPoint
 10
372.6
 20
-60.00000000000001
 30
0.0
  0
POINT
  5
36F
330
364
100
AcDbEntity
  8
Defpoints
 62
     0
100
AcDbPoint
 10
404.0
 20
-60.0
 30
0.0
  0
POINT
  5
370
330
364
100
AcDbEntity
  8
Defpoints
 62
     0
100
AcDbPoint
 10
404.0
 20
-60.0
 30
0.0
  0
ENDBLK
  5
366
330
364
100
AcDbEntity
  8
0
100
AcDbBlockEnd
  0
BLOCK
  5
372
330
371
100
AcDbEntity
  8
0
100
AcDbBlockBegin
  2
*D21
 70
     1
 10
0.0
 20
0.0
 30
0.0
  3
*D21
  1
*D21
  0
LINE
  5
374
330
371
100
AcDbEntity
  8
8.Cotations
 62
     0
370
    -2
100
AcDbLine
 10
404.0000000000001
 20
-59.93750000000001
 30
0.0
 11
404.0000000000001
 21
-59.82000000000001
 31
0.0
  0
LINE
  5
375
330
371
100
AcDbEntity
  8
8.Cotations
 62
     0
370
    -2
100
AcDbLine
 10
449.0
 20
-59.9375
 30
0.0
 11
449.0
 21
-59.82
 31
0.0
  0
LINE
  5
376
330
371
100
AcDbEntity
  8
8.Cotations
 62
     0
370
    -2
100
AcDbLine
 10
404.1800000000001
 20
-60.00000000000001
 30
0.0
 11
425.8785714285715
 21
-60.00000000000001
 31
0.0
  0
LINE
  5
377
330
371
100
AcDbEntity
  8
8.Cotations
 62
     0
370
    -2
100
AcDbLine
 10
448.82
 20
-60.0
 30
0.0
 11
427.1214285714286
 21
-60.0
 31
0.0
  0
SOLID
  5
378
330
371
100
AcDbEntity
  8
8.Cotations
 62
     0
100
AcDbTrace
 10
404.1800000000001
 20
-59.97000000000001
 30
0.0
 11
404.1800000000001
 21
-60.03000000000001
 31
0.0
 12
404.0000000000001
 22
-60.00000000000001
 32
0.0
 13
404.0000000000001
 23
-60.00000000000001
 33
0.0
  0
SOLID
  5
379
330
371
100
AcDbEntity
  8
8.Cotations
 62
     0
100
AcDbTrace
 10
448.82
 20
-60.03
 30
0.0
 11
448.82
 21
-59.97
 31
0.0
 12
449.0
 22
-60.0
 32
0.0
 13
449.0
 23
-60.0
 33
0.0
  0
MTEXT
  5
37A
330
371
100
AcDbEntity
  8
8.Cotations
 62
     0
100
AcDbMText
 10
426.5000000000001
 20
-60.0
 30
0.0
 40
0.18
 41
0.0
 46
0.0
 71
     5
 72
     1
  1
\A1;45.0000
 73
     1
 44
1.0
  0
POINT
  5
37B
330
371
100
AcDbEntity
  8
Defpoints
 62
     0
100
AcDbPoint
 10
404.0000000000001
 20
-60.00000000000001
 30
0.0
  0
POINT
  5
37C
330
371
100
AcDbEntity
  8
Defpoints
 62
     0
100
AcDbPoint
 10
449.0
 20
-60.0
 30
0.0
  0
POINT
  5
37D
330
371
100
AcDbEntity
  8
Defpoints
 62
     0
100
AcDbPoint
 10
449.0
 20
-60.0
 30
0.0
  0
ENDBLK
  5
373
330
371
100
AcDbEntity
  8
0
100
AcDbBlockEnd
  0
BLOCK
  5
37F
330
37E
100
AcDbEntity
  8
0
100
AcDbBlockBegin
  2
*D22
 70
     1
 10
0.0
 20
0.0
 30
0.0
  3
*D22
  1
*D22
  0
LINE
  5
381
330
37E
100
AcDbEntity
  8
8.Cotations
 62
     0
370
    -2
100
AcDbLine
 10
448.9999999999999
 20
-59.93750000000001
 30
0.0
 11
448.9999999999999
 21
-59.82000000000001
 31
0.0
  0
LINE
  5
382
330
37E
100
AcDbEntity
  8
8.Cotations
 62
     0
370
    -2
100
AcDbLine
 10
473.9999999999999
 20
-59.9375
 30
0.0
 11
473.9999999999999
 21
-59.82
 31
0.0
  0
LINE
  5
383
330
37E
100
AcDbEntity
  8
8.Cotations
 62
     0
370
    -2
100
AcDbLine
 10
449.1799999999999
 20
-60.00000000000001
 30
0.0
 11
460.8785714285713
 21
-60.00000000000001
 31
0.0
  0
LINE
  5
384
330
37E
100
AcDbEntity
  8
8.Cotations
 62
     0
370
    -2
100
AcDbLine
 10
473.8199999999999
 20
-60.0
 30
0.0
 11
462.1214285714285
 21
-60.0
 31
0.0
  0
SOLID
  5
385
330
37E
100
AcDbEntity
  8
8.Cotations
 62
     0
100
AcDbTrace
 10
449.1799999999999
 20
-59.97000000000001
 30
0.0
 11
449.1799999999999
 21
-60.03000000000001
 31
0.0
 12
448.9999999999999
 22
-60.00000000000001
 32
0.0
 13
448.9999999999999
 23
-60.00000000000001
 33
0.0
  0
SOLID
  5
386
330
37E
100
AcDbEntity
  8
8.Cotations
 62
     0
100
AcDbTrace
 10
473.8199999999999
 20
-60.03
 30
0.0
 11
473.8199999999999
 21
-59.97
 31
0.0
 12
473.9999999999999
 22
-60.0
 32
0.0
 13
473.9999999999999
 23
-60.0
 33
0.0
  0
MTEXT
  5
387
330
37E
100
AcDbEntity
  8
8.Cotations
 62
     0
100
AcDbMText
 10
461.4999999999999
 20
-60.0
 30
0.0
 40
0.18
 41
0.0
 46
0.0
 71
     5
 72
     1
  1
\A1;25.0000
 73
     1
 44
1.0
  0
POINT
  5
388
330
37E
100
AcDbEntity
  8
Defpoints
 62
     0
100
AcDbPoint
 10
448.9999999999999
 20
-60.00000000000001
 30
0.0
  0
POINT
  5
389
330
37E
100
AcDbEntity
  8
Defpoints
 62
     0
100
AcDbPoint
 10
473.9999999999999
 20
-60.0
 30
0.0
  0
POINT
  5
38A
330
37E
100
AcDbEntity
  8
Defpoints
 62
     0
100
AcDbPoint
 10
473.9999999999999
 20
-60.0
 30
0.0
  0
ENDBLK
  5
380
330
37E
100
AcDbEntity
  8
0
100
AcDbBlockEnd
  0
BLOCK
  5
38C
330
38B
100
AcDbEntity
  8
0
100
AcDbBlockBegin
  2
*D23
 70
     1
 10
0.0
 20
0.0
 30
0.0
  3
*D23
  1
*D23
  0
LINE
  5
38E
330
38B
100
AcDbEntity
  8
8.Cotations
 62
     0
370
    -2
100
AcDbLine
 10
473.9999999999999
 20
-59.9375
 30
0.0
 11
473.9999999999999
 21
-59.82
 31
0.0
  0
LINE
  5
38F
330
38B
100
AcDbEntity
  8
8.Cotations
 62
     0
370
    -2
100
AcDbLine
 10
488.0
 20
-59.9375
 30
0.0
 11
488.0
 21
-59.82
 31
0.0
  0
LINE
  5
390
330
38B
100
AcDbEntity
  8
8.Cotations
 62
     0
370
    -2
100
AcDbLine
 10
474.1799999999999
 20
-60.0
 30
0.0
 11
480.3914285714285
 21
-60.0
 31
0.0
  0
LINE
  5
391
330
38B
100
AcDbEntity
  8
8.Cotations
 62
     0
370
    -2
100
AcDbLine
 10
487.82
 20
-60.0
 30
0.0
 11
481.6085714285713
 21
-60.0
 31
0.0
  0
SOLID
  5
392
330
38B
100
AcDbEntity
  8
8.Cotations
 62
     0
100
AcDbTrace
 10
474.1799999999999
 20
-59.97
 30
0.0
 11
474.1799999999999
 21
-60.03
 31
0.0
 12
473.9999999999999
 22
-60.0
 32
0.0
 13
473.9999999999999
 23
-60.0
 33
0.0
  0
SOLID
  5
393
330
38B
100
AcDbEntity
  8
8.Cotations
 62
     0
100
AcDbTrace
 10
487.82
 20
-60.03
 30
0.0
 11
487.82
 21
-59.97
 31
0.0
 12
488.0
 22
-60.0
 32
0.0
 13
488.0
 23
-60.0
 33
0.0
  0
MTEXT
  5
394
330
38B
100
AcDbEntity
  8
8.Cotations
 62
     0
100
AcDbMText
 10
480.9999999999999
 20
-60.0
 30
0.0
 40
0.18
 41
0.0
 46
0.0
 71
     5
 72
     1
  1
\A1;14.0000
 73
     1
 44
1.0
  0
POINT
  5
395
330
38B
100
AcDbEntity
  8
Defpoints
 62
     0
100
AcDbPoint
 10
473.9999999999999
 20
-60.0
 30
0.0
  0
POINT
  5
396
330
38B
100
AcDbEntity
  8
Defpoints
 62
     0
100
AcDbPoint
 10
488.0
 20
-60.0
 30
0.0
  0
POINT
  5
397
330
38B
100
AcDbEntity
  8
Defpoints
 62
     0
100
AcDbPoint
 10
488.0
 20
-60.0
 30
0.0
  0
ENDBLK
  5
38D
330
38B
100
AcDbEntity
  8
0
100
AcDbBlockEnd
  0
BLOCK
  5
399
330
398
100
AcDbEntity
  8
0
100
AcDbBlockBegin
  2
*D24
 70
     1
 10
0.0
 20
0.0
 30
0.0
  3
*D24
  1
*D24
  0
LINE
  5
39B
330
398
100
AcDbEntity
  8
8.Cotations
 62
     0
370
    -2
100
AcDbLine
 10
488.0
 20
-59.93749999999999
 30
0.0
 11
488.0
 21
-59.81999999999999
 31
0.0
  0
LINE
  5
39C
330
398
100
AcDbEntity
  8
8.Cotations
 62
     0
370
    -2
100
AcDbLine
 10
504.0
 20
-69.9375
 30
0.0
 11
504.0
 21
-59.82
 31
0.0
  0
LINE
  5
39D
330
398
100
AcDbEntity
  8
8.Cotations
 62
     0
370
    -2
100
AcDbLine
 10
488.18
 20
-59.99999999999999
 30
0.0
 11
495.3914285714286
 21
-59.99999999999999
 31
0.0
  0
LINE
  5
39E
330
398
100
AcDbEntity
  8
8.Cotations
 62
     0
370
    -2
100
AcDbLine
 10
503.82
 20
-60.0
 30
0.0
 11
496.6085714285714
 21
-60.0
 31
0.0
  0
SOLID
  5
39F
330
398
100
AcDbEntity
  8
8.Cotations
 62
     0
100
AcDbTrace
 10
488.18
 20
-59.96999999999999
 30
0.0
 11
488.18
 21
-60.02999999999999
 31
0.0
 12
488.0
 22
-59.99999999999999
 32
0.0
 13
488.0
 23
-59.99999999999999
 33
0.0
  0
SOLID
  5
3A0
330
398
100
AcDbEntity
  8
8.Cotations
 62
     0
100
AcDbTrace
 10
503.82
 20
-60.03
 30
0.0
 11
503.82
 21
-59.97
 31
0.0
 12
504.0
 22
-60.0
 32
0.0
 13
504.0
 23
-60.0
 33
0.0
  0
MTEXT
  5
3A1
330
398
100
AcDbEntity
  8
8.Cotations
 62
     0
100
AcDbMText
 10
496.0
 20
-60.0
 30
0.0
 40
0.18
 41
0.0
 46
0.0
 71
     5
 72
     1
  1
\A1;16.0000
 73
     1
 44
1.0
  0
POINT
  5
3A2
330
398
100
AcDbEntity
  8
Defpoints
 62
     0
100
AcDbPoint
 10
488.0
 20
-59.99999999999999
 30
0.0
  0
POINT
  5
3A3
330
398
100
AcDbEntity
  8
Defpoints
 62
     0
100
AcDbPoint
 10
504.0
 20
-70.0
 30
0.0
  0
POINT
  5
3A4
330
398
100
AcDbEntity
  8
Defpoints
 62
     0
100
AcDbPoint
 10
504.0
 20
-60.0
 30
0.0
  0
ENDBLK
  5
39A
330
398
100
AcDbEntity
  8
0
100
AcDbBlockEnd
  0
BLOCK
  5
3A6
330
3A5
100
AcDbEntity
  8
0
100
AcDbBlockBegin
  2
*D25
 70
     1
 10
0.0
 20
0.0
 30
0.0
  3
*D25
  1
*D25
  0
LINE
  5
3A8
330
3A5
100
AcDbEntity
  8
8.Cotations
 62
     0
370
    -2
100
AcDbLine
 10
504.0
 20
-59.9375
 30
0.0
 11
504.0
 21
-59.82
 31
0.0
  0
LINE
  5
3A9
330
3A5
100
AcDbEntity
  8
8.Cotations
 62
     0
370
    -2
100
AcDbLine
 10
528.0
 20
-69.9375
 30
0.0
 11
528.0
 21
-59.82
 31
0.0
  0
LINE
  5
3AA
330
3A5
100
AcDbEntity
  8
8.Cotations
 62
     0
370
    -2
100
AcDbLine
 10
504.18
 20
-60.0
 30
0.0
 11
515.3785714285714
 21
-60.0
 31
0.0
  0
LINE
  5
3AB
330
3A5
100
AcDbEntity
  8
8.Cotations
 62
     0
370
    -2
100
AcDbLine
 10
527.82
 20
-60.0
 30
0.0
 11
516.6214285714286
 21
-60.0
 31
0.0
  0
SOLID
  5
3AC
330
3A5
100
AcDbEntity
  8
8.Cotations
 62
     0
100
AcDbTrace
 10
504.18
 20
-59.97
 30
0.0
 11
504.18
 21
-60.03
 31
0.0
 12
504.0
 22
-60.0
 32
0.0
 13
504.0
 23
-60.0
 33
0.0
  0
SOLID
  5
3AD
330
3A5
100
AcDbEntity
  8
8.Cotations
 62
     0
100
AcDbTrace
 10
527.82
 20
-60.03
 30
0.0
 11
527.82
 21
-59.97
 31
0.0
 12
528.0
 22
-60.0
 32
0.0
 13
528.0
 23
-60.0
 33
0.0
  0
MTEXT
  5
3AE
330
3A5
100
AcDbEntity
  8
8.Cotations
 62
     0
100
AcDbMText
 10
516.0
 20
-60.0
 30
0.0
 40
0.18
 41
0.0
 46
0.0
 71
     5
 72
     1
  1
\A1;24.0000
 73
     1
 44
1.0
  0
POINT
  5
3AF
330
3A5
100
AcDbEntity
  8
Defpoints
 62
     0
100
AcDbPoint
 10
504.0
 20
-60.0
 30
0.0
  0
POINT
  5
3B0
330
3A5
100
AcDbEntity
  8
Defpoints
 62
     0
100
AcDbPoint
 10
528.0
 20
-70.0
 30
0.0
  0
POINT
  5
3B1
330
3A5
100
AcDbEntity
  8
Defpoints
 62
     0
100
AcDbPoint
 10
528.0
 20
-60.0
 30
0.0
  0
ENDBLK
  5
3A7
330
3A5
100
AcDbEntity
  8
0
100
AcDbBlockEnd
  0
BLOCK
  5
3B3
330
3B2
100
AcDbEntity
  8
0
100
AcDbBlockBegin
  2
*D26
 70
     1
 10
0.0
 20
0.0
 30
0.0
  3
*D26
  1
*D26
  0
LINE
  5
3B5
330
3B2
100
AcDbEntity
  8
8.Cotations
 62
     0
370
    -2
100
AcDbLine
 10
528.0
 20
-59.93750000000001
 30
0.0
 11
528.0
 21
-59.82000000000001
 31
0.0
  0
LINE
  5
3B6
330
3B2
100
AcDbEntity
  8
8.Cotations
 62
     0
370
    -2
100
AcDbLine
 10
550.0
 20
-59.93749999999999
 30
0.0
 11
550.0
 21
-59.81999999999999
 31
0.0
  0
LINE
  5
3B7
330
3B2
100
AcDbEntity
  8
8.Cotations
 62
     0
370
    -2
100
AcDbLine
 10
528.18
 20
-60.00000000000001
 30
0.0
 11
538.3785714285714
 21
-60.0
 31
0.0
  0
LINE
  5
3B8
330
3B2
100
AcDbEntity
  8
8.Cotations
 62
     0
370
    -2
100
AcDbLine
 10
549.82
 20
-59.99999999999999
 30
0.0
 11
539.6214285714286
 21
-60.0
 31
0.0
  0
SOLID
  5
3B9
330
3B2
100
AcDbEntity
  8
8.Cotations
 62
     0
100
AcDbTrace
 10
528.18
 20
-59.97000000000001
 30
0.0
 11
528.18
 21
-60.03000000000001
 31
0.0
 12
528.0
 22
-60.00000000000001
 32
0.0
 13
528.0
 23
-60.00000000000001
 33
0.0
  0
SOLID
  5
3BA
330
3B2
100
AcDbEntity
  8
8.Cotations
 62
     0
100
AcDbTrace
 10
549.82
 20
-60.02999999999999
 30
0.0
 11
549.82
 21
-59.96999999999999
 31
0.0
 12
550.0
 22
-59.99999999999999
 32
0.0
 13
550.0
 23
-59.99999999999999
 33
0.0
  0
MTEXT
  5
3BB
330
3B2
100
AcDbEntity
  8
8.Cotations
 62
     0
100
AcDbMText
 10
539.0
 20
-60.0
 30
0.0
 40
0.18
 41
0.0
 46
0.0
 71
     5
 72
     1
  1
\A1;22.0000
 73
     1
 44
1.0
  0
POINT
  5
3BC
330
3B2
100
AcDbEntity
  8
Defpoints
 62
     0
100
AcDbPoint
 10
528.0
 20
-60.00000000000001
 30
0.0
  0
POINT
  5
3BD
330
3B2
100
AcDbEntity
  8
Defpoints
 62
     0
100
AcDbPoint
 10
550.0
 20
-59.99999999999999
 30
0.0
  0
POINT
  5
3BE
330
3B2
100
AcDbEntity
  8
Defpoints
 62
     0
100
AcDbPoint
 10
550.0
 20
-59.99999999999999
 30
0.0
  0
ENDBLK
  5
3B4
330
3B2
100
AcDbEntity
  8
0
100
AcDbBlockEnd
  0
BLOCK
  5
3C0
330
3BF
100
AcDbEntity
  8
0
100
AcDbBlockBegin
  2
*D27
 70
     1
 10
0.0
 20
0.0
 30
0.0
  3
*D27
  1
*D27
  0
LINE
  5
3C2
330
3BF
100
AcDbEntity
  8
8.Cotations
 62
     0
370
    -2
100
AcDbLine
 10
493.3828571428572
 20
-77.0
 30
0.0
 11
492.9291001204791
 21
-77.0
 31
0.0
  0
LINE
  5
3C3
330
3BF
100
AcDbEntity
  8
8.Cotations
 62
     0
370
    -2
100
AcDbLine
 10
492.9291001204791
 20
-77.0
 30
0.0
 11
485.6567327177693
 21
-66.67223822306534
 31
0.0
  0
MTEXT
  5
3C4
330
3BF
100
AcDbEntity
  8
8.Cotations
 62
     0
100
AcDbMText
 10
494.0
 20
-77.0
 30
0.0
 40
0.18
 41
0.0
 46
0.0
 71
     5
 72
     1
  1
\A1;%%c8.5000
 73
     1
 44
1.0
  0
SOLID
  5
3C5
330
3BF
100
AcDbEntity
  8
8.Cotations
 62
     0
100
AcDbTrace
 10
485.6812616743561
 20
-66.65496598265577
 30
0.0
 11
485.6322037611826
 21
-66.6895104634749
 31
0.0
 12
485.553099275312
 22
-66.52506448354488
 32
0.0
 13
485.553099275312
 23
-66.52506448354488
 33
0.0
  0
POINT
  5
3C6
330
3BF
100
AcDbEntity
  8
Defpoints
 62
     0
100
AcDbPoint
 10
485.553099275312
 20
-66.52506448354488
 30
0.0
  0
POINT
  5
3C7
330
3BF
100
AcDbEntity
  8
Defpoints
 62
     0
100
AcDbPoint
 10
490.446900724688
 20
-73.47493551645512
 30
0.0
  0
ENDBLK
  5
3C1
330
3BF
100
AcDbEntity
  8
0
100
AcDbBlockEnd
  0
BLOCK
  5
3C9
330
3C8
100
AcDbEntity
  8
0
100
AcDbBlockBegin
  2
*D28
 70
     1
 10
0.0
 20
0.0
 30
0.0
  3
*D28
  1
*D28
  0
LINE
  5
3CB
330
3C8
100
AcDbEntity
  8
8.Cotations
 62
     0
370
    -2
100
AcDbLine
 10
453.3828571428572
 20
-76.0
 30
0.0
 11
453.0478210574601
 21
-76.0
 31
0.0
  0
LINE
  5
3CC
330
3C8
100
AcDbEntity
  8
8.Cotations
 62
     0
370
    -2
100
AcDbLine
 10
453.0478210574601
 20
-76.0
 30
0.0
 11
447.0873102212709
 21
-67.16486017799028
 31
0.0
  0
MTEXT
  5
3CD
330
3C8
100
AcDbEntity
  8
8.Cotations
 62
     0
100
AcDbMText
 10
454.0
 20
-76.0
 30
0.0
 40
0.18
 41
0.0
 46
0.0
 71
     5
 72
     1
  1
\A1;%%c7.2000
 73
     1
 44
1.0
  0
SOLID
  5
3CE
330
3C8
100
AcDbEntity
  8
8.Cotations
 62
     0
100
AcDbTrace
 10
447.1121798688324
 20
-67.1480821974751
 30
0.0
 11
447.0624405737094
 21
-67.18163815850545
 31
0.0
 12
446.9866423381799
 22
-67.01564229262135
 32
0.0
 13
446.9866423381799
 23
-67.01564229262135
 33
0.0
  0
POINT
  5
3CF
330
3C8
100
AcDbEntity
  8
Defpoints
 62
     0
100
AcDbPoint
 10
446.9866423381799
 20
-67.01564229262135
 30
0.0
  0
POINT
  5
3D0
330
3C8
100
AcDbEntity
  8
Defpoints
 62
     0
100
AcDbPoint
 10
451.0133576618201
 20
-72.98435770737865
 30
0.0
  0
ENDBLK
  5
3CA
330
3C8
100
AcDbEntity
  8
0
100
AcDbBlockEnd
  0
BLOCK
  5
3D2
330
3D1
100
AcDbEntity
  8
0
100
AcDbBlockBegin
  2
*D29
 70
     1
 10
0.0
 20
0.0
 30
0.0
  3
*D29
  1
*D29
  0
LINE
  5
3D4
330
3D1
100
AcDbEntity
  8
8.Cotations
 62
     0
370
    -2
100
AcDbLine
 10
409.601399736516
 20
-76.0
 30
0.0
 11
409.4213997365159
 21
-76.0
 31
0.0
  0
LINE
  5
3D5
330
3D1
100
AcDbEntity
  8
8.Cotations
 62
     0
370
    -2
100
AcDbLine
 10
409.4213997365159
 20
-76.0
 30
0.0
 11
401.6401022044398
 21
-67.38824151298218
 31
0.0
  0
MTEXT
  5
3D6
330
3D1
100
AcDbEntity
  8
8.Cotations
 62
     0
100
AcDbMText
 10
410.2185425936588
 20
-76.0
 30
0.0
 40
0.18
 41
0.0
 46
0.0
 71
     5
 72
     1
  1
\A1;%%c7.4000
 73
     1
 44
1.0
  0
SOLID
  5
3D7
330
3D1
100
AcDbEntity
  8
8.Cotations
 62
     0
100
AcDbTrace
 10
401.6623615097268
 20
-67.36812874767911
 30
0.0
 11
401.6178428991527
 21
-67.40835427828524
 31
0.0
 12
401.5194256126213
 22
-67.25468568125967
 32
0.0
 13
401.5194256126213
 23
-67.25468568125967
 33
0.0
  0
POINT
  5
3D8
330
3D1
100
AcDbEntity
  8
Defpoints
 62
     0
100
AcDbPoint
 10
401.5194256126213
 20
-67.25468568125967
 30
0.0
  0
POINT
  5
3D9
330
3D1
100
AcDbEntity
  8
Defpoints
 62
     0
100
AcDbPoint
 10
406.4805743873787
 20
-72.74531431874033
 30
0.0
  0
ENDBLK
  5
3D3
330
3D1
100
AcDbEntity
  8
0
100
AcDbBlockEnd
  0
BLOCK
  5
3DB
330
3DA
100
AcDbEntity
  8
0
100
AcDbBlockBegin
  2
*D30
 70
     1
 10
0.0
 20
0.0
 30
0.0
  3
*D30
  1
*D30
  0
LINE
  5
3DD
330
3DA
100
AcDbEntity
  8
8.Cotations
 62
     0
370
    -2
100
AcDbLine
 10
379.1612411551485
 20
-77.0
 30
0.0
 11
378.9812411551484
 21
-77.0
 31
0.0
  0
LINE
  5
3DE
330
3DA
100
AcDbEntity
  8
8.Cotations
 62
     0
370
    -2
100
AcDbLine
 10
378.9812411551484
 20
-77.0
 30
0.0
 11
369.3528153481218
 21
-66.437951174309
 31
0.0
  0
MTEXT
  5
3DF
330
3DA
100
AcDbEntity
  8
8.Cotations
 62
     0
100
AcDbMText
 10
379.8640982980056
 20
-77.0
 30
0.0
 40
0.18
 41
0.0
 46
0.0
 71
     5
 72
     1
  1
\A1;%%c10.0000
 73
     1
 44
1.0
  0
SOLID
  5
3E0
330
3DA
100
AcDbEntity
  8
8.Cotations
 62
     0
100
AcDbTrace
 10
369.3749857764975
 20
-66.417740481455
 30
0.0
 11
369.3306449197461
 21
-66.45816186716301
 31
0.0
 12
369.2315511909977
 22
-66.30492860405498
 32
0.0
 13
369.2315511909977
 23
-66.30492860405498
 33
0.0
  0
POINT
  5
3E1
330
3DA
100
AcDbEntity
  8
Defpoints
 62
     0
100
AcDbPoint
 10
369.2315511909977
 20
-66.30492860405498
 30
0.0
  0
POINT
  5
3E2
330
3DA
100
AcDbEntity
  8
Defpoints
 62
     0
100
AcDbPoint
 10
375.9684488090023
 20
-73.69507139594502
 30
0.0
  0
ENDBLK
  5
3DC
330
3DA
100
AcDbEntity
  8
0
100
AcDbBlockEnd
  0
BLOCK
  5
3E4
330
3E3
100
AcDbEntity
  8
0
100
AcDbBlockBegin
  2
*D31
 70
     1
 10
0.0
 20
0.0
 30
0.0
  3
*D31
  1
*D31
  0
LINE
  5
3E6
330
3E3
100
AcDbEntity
  8
8.Cotations
 62
     0
370
    -2
100
AcDbLine
 10
351.0587969976934
 20
-76.0
 30
0.0
 11
350.8787969976934
 21
-76.0
 31
0.0
  0
LINE
  5
3E7
330
3E3
100
AcDbEntity
  8
8.Cotations
 62
     0
370
    -2
100
AcDbLine
 10
350.8787969976934
 20
-76.0
 30
0.0
 11
345.3307182214425
 21
-67.19072215897673
 31
0.0
  0
MTEXT
  5
3E8
330
3E3
100
AcDbEntity
  8
8.Cotations
 62
     0
100
AcDbMText
 10
351.6759398548363
 20
-76.0
 30
0.0
 40
0.18
 41
0.0
 46
0.0
 71
     5
 72
     1
  1
\A1;%%c7.0000
 73
     1
 44
1.0
  0
SOLID
  5
3E9
330
3E3
100
AcDbEntity
  8
8.Cotations
 62
     0
100
AcDbTrace
 10
345.3561032621747
 20
-67.17473467302591
 30
0.0
 11
345.3053331807104
 21
-67.20670964492754
 31
0.0
 12
345.2347933057376
 22
-67.0384119145839
 32
0.0
 13
345.2347933057376
 23
-67.0384119145839
 33
0.0
  0
POINT
  5
3EA
330
3E3
100
AcDbEntity
  8
Defpoints
 62
     0
100
AcDbPoint
 10
345.2347933057376
 20
-67.0384119145839
 30
0.0
  0
POINT
  5
3EB
330
3E3
100
AcDbEntity
  8
Defpoints
 62
     0
100
AcDbPoint
 10
348.9652066942625
 20
-72.9615880854161
 30
0.0
  0
ENDBLK
  5
3E5
330
3E3
100
AcDbEntity
  8
0
100
AcDbBlockEnd
  0
BLOCK
  5
3ED
330
3EC
100
AcDbEntity
  8
0
100
AcDbBlockBegin
  2
*D32
 70
     1
 10
0.0
 20
0.0
 30
0.0
  3
*D32
  1
*D32
  0
LINE
  5
3EF
330
3EC
100
AcDbEntity
  8
8.Cotations
 62
     0
370
    -2
100
AcDbLine
 10
318.9252147278649
 20
-77.0
 30
0.0
 11
318.7452147278648
 21
-77.0
 31
0.0
  0
LINE
  5
3F0
330
3EC
100
AcDbEntity
  8
8.Cotations
 62
     0
370
    -2
100
AcDbLine
 10
318.7452147278648
 20
-77.0
 30
0.0
 11
310.6705840795275
 21
-66.98755277467724
 31
0.0
  0
MTEXT
  5
3F1
330
3EC
100
AcDbEntity
  8
8.Cotations
 62
     0
100
AcDbMText
 10
319.5423575850077
 20
-77.0
 30
0.0
 40
0.18
 41
0.0
 46
0.0
 71
     5
 72
     1
  1
\A1;%%c8.1000
 73
     1
 44
1.0
  0
SOLID
  5
3F2
330
3EC
100
AcDbEntity
  8
8.Cotations
 62
     0
100
AcDbTrace
 10
310.6939363835998
 20
-66.9687200931232
 30
0.0
 11
310.6472317754553
 21
-67.00638545623129
 31
0.0
 12
310.5575879902032
 22
-66.84743895024363
 32
0.0
 13
310.5575879902032
 23
-66.84743895024363
 33
0.0
  0
POINT
  5
3F3
330
3EC
100
AcDbEntity
  8
Defpoints
 62
     0
100
AcDbPoint
 10
310.5575879902032
 20
-66.84743895024363
 30
0.0
  0
POINT
  5
3F4
330
3EC
100
AcDbEntity
  8
Defpoints
 62
     0
100
AcDbPoint
 10
315.6424120097968
 20
-73.15256104975637
 30
0.0
  0
ENDBLK
  5
3EE
330
3EC
100
AcDbEntity
  8
0
100
AcDbBlockEnd
  0
BLOCK
  5
3F6
330
3F5
100
AcDbEntity
  8
0
100
AcDbBlockBegin
  2
*D33
 70
     1
 10
0.0
 20
0.0
 30
0.0
  3
*D33
  1
*D33
  0
LINE
  5
3F8
330
3F5
100
AcDbEntity
  8
8.Cotations
 62
     0
370
    -2
100
AcDbLine
 10
285.3575187421135
 20
-76.82083479797758
 30
0.0
 11
285.1775187421134
 21
-76.82083479797758
 31
0.0
  0
LINE
  5
3F9
330
3F5
100
AcDbEntity
  8
8.Cotations
 62
     0
370
    -2
100
AcDbLine
 10
285.1775187421134
 20
-76.82083479797758
 30
0.0
 11
277.9981095270964
 21
-67.17644613298829
 31
0.0
  0
MTEXT
  5
3FA
330
3F5
100
AcDbEntity
  8
8.Cotations
 62
     0
100
AcDbMText
 10
285.9746615992563
 20
-76.82083479797758
 30
0.0
 40
0.18
 41
0.0
 46
0.0
 71
     5
 72
     1
  1
\A1;%%c7.4000
 73
     1
 44
1.0
  0
SOLID
  5
3FB
330
3F5
100
AcDbEntity
  8
8.Cotations
 62
     0
100
AcDbTrace
 10
278.0221739066448
 20
-67.15853229373059
 30
0.0
 11
277.974045147548
 21
-67.19435997224599
 31
0.0
 12
277.8906264915502
 22
-67.03205985569792
 32
0.0
 13
277.8906264915502
 23
-67.03205985569792
 33
0.0
  0
POINT
  5
3FC
330
3F5
100
AcDbEntity
  8
Defpoints
 62
     0
100
AcDbPoint
 10
277.8906264915502
 20
-67.03205985569792
 30
0.0
  0
POINT
  5
3FD
330
3F5
100
AcDbEntity
  8
Defpoints
 62
     0
100
AcDbPoint
 10
282.3093735084499
 20
-72.96794014430208
 30
0.0
  0
ENDBLK
  5
3F7
330
3F5
100
AcDbEntity
  8
0
100
AcDbBlockEnd
  0
BLOCK
  5
3FF
330
3FE
100
AcDbEntity
  8
0
100
AcDbBlockBegin
  2
*D34
 70
     1
 10
0.0
 20
0.0
 30
0.0
  3
*D34
  1
*D34
  0
LINE
  5
401
330
3FE
100
AcDbEntity
  8
8.Cotations
 62
     0
370
    -2
100
AcDbLine
 10
262.0388571428571
 20
-77.82883479797758
 30
0.0
 11
261.7508404177558
 21
-77.82883479797758
 31
0.0
  0
LINE
  5
402
330
3FE
100
AcDbEntity
  8
8.Cotations
 62
     0
370
    -2
100
AcDbLine
 10
261.7508404177558
 20
-77.82883479797758
 30
0.0
 11
253.7472359815972
 21
-66.74041391067686
 31
0.0
  0
MTEXT
  5
403
330
3FE
100
AcDbEntity
  8
8.Cotations
 62
     0
100
AcDbMText
 10
262.6559999999999
 20
-77.82883479797758
 30
0.0
 40
0.18
 41
0.0
 46
0.0
 71
     5
 72
     1
  1
\A1;%%c8.4000
 73
     1
 44
1.0
  0
SOLID
  5
404
330
3FE
100
AcDbEntity
  8
8.Cotations
 62
     0
100
AcDbTrace
 10
253.7715612509205
 20
-66.72285597024103
 30
0.0
 11
253.7229107122739
 21
-66.7579718511127
 31
0.0
 12
253.6418883389821
 22
-66.59446229473703
 32
0.0
 13
253.6418883389821
 23
-66.59446229473703
 33
0.0
  0
POINT
  5
405
330
3FE
100
AcDbEntity
  8
Defpoints
 62
     0
100
AcDbPoint
 10
253.6418883389821
 20
-66.59446229473703
 30
0.0
  0
POINT
  5
406
330
3FE
100
AcDbEntity
  8
Defpoints
 62
     0
100
AcDbPoint
 10
258.5581116610179
 20
-73.40553770526297
 30
0.0
  0
ENDBLK
  5
400
330
3FE
100
AcDbEntity
  8
0
100
AcDbBlockEnd
  0
BLOCK
  5
408
330
407
100
AcDbEntity
  8
0
100
AcDbBlockBegin
  2
*D35
 70
     1
 10
0.0
 20
0.0
 30
0.0
  3
*D35
  1
*D35
  0
LINE
  5
40A
330
407
100
AcDbEntity
  8
8.Cotations
 62
     0
370
    -2
100
AcDbLine
 10
247.7112473091998
 20
-76.82083479797758
 30
0.0
 11
247.5312473091998
 21
-76.82083479797758
 31
0.0
  0
LINE
  5
40B
330
407
100
AcDbEntity
  8
8.Cotations
 62
     0
370
    -2
100
AcDbLine
 10
247.5312473091998
 20
-76.82083479797758
 30
0.0
 11
239.2473895267858
 21
-67.60528328384994
 31
0.0
  0
MTEXT
  5
40C
330
407
100
AcDbEntity
  8
8.Cotations
 62
     0
100
AcDbMText
 10
248.3283901663426
 20
-76.82083479797758
 30
0.0
 40
0.18
 41
0.0
 46
0.0
 71
     5
 72
     1
  1
\A1;%%c6.8000
 73
     1
 44
1.0
  0
SOLID
  5
40D
330
407
100
AcDbEntity
  8
8.Cotations
 62
     0
100
AcDbTrace
 10
239.2697005520916
 20
-67.58522790677031
 30
0.0
 11
239.2250785014801
 21
-67.62533866092957
 31
0.0
 12
239.127057264308
 22
-67.47141713201547
 32
0.0
 13
239.127057264308
 23
-67.47141713201547
 33
0.0
  0
POINT
  5
40E
330
407
100
AcDbEntity
  8
Defpoints
 62
     0
100
AcDbPoint
 10
239.127057264308
 20
-67.47141713201547
 30
0.0
  0
POINT
  5
40F
330
407
100
AcDbEntity
  8
Defpoints
 62
     0
100
AcDbPoint
 10
243.6729427356921
 20
-72.52858286798453
 30
0.0
  0
ENDBLK
  5
409
330
407
100
AcDbEntity
  8
0
100
AcDbBlockEnd
  0
BLOCK
  5
411
330
410
100
AcDbEntity
  8
0
100
AcDbBlockBegin
  2
*D36
 70
     1
 10
0.0
 20
0.0
 30
0.0
  3
*D36
  1
*D36
  0
LINE
  5
413
330
410
100
AcDbEntity
  8
8.Cotations
 62
     0
370
    -2
100
AcDbLine
 10
222.561468342857
 20
43.00600893535574
 30
0.0
 11
226.4393603603253
 21
43.00600893535574
 31
0.0
  0
LINE
  5
414
330
410
100
AcDbEntity
  8
8.Cotations
 62
     0
370
    -2
100
AcDbLine
 10
226.4393603603253
 20
43.00600893535574
 30
0.0
 11
253.0165943565877
 21
55.41273854813522
 31
0.0
  0
MTEXT
  5
415
330
410
100
AcDbEntity
  8
8.Cotations
 62
     0
100
AcDbMText
 10
221.8586111999999
 20
43.00600893535574
 30
0.0
 40
0.18
 41
0.0
 46
0.0
 71
     5
 72
     1
  1
\A1;%%c26.0000
 73
     1
 44
1.0
  0
SOLID
  5
416
330
410
100
AcDbEntity
  8
8.Cotations
 62
     0
100
AcDbTrace
 10
253.0292842972477
 20
55.38555462998409
 30
0.0
 11
253.0039044159278
 21
55.43992246628636
 31
0.0
 12
253.1796978654946
 22
55.48887819209469
 32
0.0
 13
253.1796978654946
 23
55.48887819209469
 33
0.0
  0
POINT
  5
417
330
410
100
AcDbEntity
  8
Defpoints
 62
     0
100
AcDbPoint
 10
253.1796978654946
 20
55.48887819209469
 30
0.0
  0
POINT
  5
418
330
410
100
AcDbEntity
  8
Defpoints
 62
     0
100
AcDbPoint
 10
229.6203021345056
 20
44.49092962017195
 30
0.0
  0
ENDBLK
  5
412
330
410
100
AcDbEntity
  8
0
100
AcDbBlockEnd
  0
BLOCK
  5
41A
330
419
100
AcDbEntity
  8
0
100
AcDbBlockBegin
  2
*D37
 70
     1
 10
0.0
 20
0.0
 30
0.0
  3
*D37
  1
*D37
  0
LINE
  5
41C
330
419
100
AcDbEntity
  8
8.Cotations
 62
     0
370
    -2
100
AcDbLine
 10
310.5477770760599
 20
52.97226982948458
 30
0.0
 11
319.1006807761833
 21
52.97226982948458
 31
0.0
  0
LINE
  5
41D
330
419
100
AcDbEntity
  8
8.Cotations
 62
     0
370
    -2
100
AcDbLine
 10
319.1006807761833
 20
52.97226982948458
 30
0.0
 11
306.0972090208019
 21
46.50948460644248
 31
0.0
  0
MTEXT
  5
41E
330
419
100
AcDbEntity
  8
8.Cotations
 62
     0
100
AcDbMText
 10
309.8449199332028
 20
52.97226982948458
 30
0.0
 40
0.18
 41
0.0
 46
0.0
 71
     5
 72
     1
  1
\A1;%%c16.0000
 73
     1
 44
1.0
  0
SOLID
  5
41F
330
419
100
AcDbEntity
  8
8.Cotations
 62
     0
100
AcDbTrace
 10
306.0838570286036
 20
46.53634953347265
 30
0.0
 11
306.1105610130002
 21
46.4826196794123
 31
0.0
 12
305.9360194586208
 22
46.42937265325266
 32
0.0
 13
305.9360194586208
 23
46.42937265325266
 33
0.0
  0
POINT
  5
420
330
419
100
AcDbEntity
  8
Defpoints
 62
     0
100
AcDbPoint
 10
305.9360194586208
 20
46.42937265325266
 30
0.0
  0
POINT
  5
421
330
419
100
AcDbEntity
  8
Defpoints
 62
     0
100
AcDbPoint
 10
320.2639805413792
 20
53.55043515901398
 30
0.0
  0
ENDBLK
  5
41B
330
419
100
AcDbEntity
  8
0
100
AcDbBlockEnd
  0
BLOCK
  5
423
330
422
100
AcDbEntity
  8
0
100
AcDbBlockBegin
  2
*D38
 70
     1
 10
0.0
 20
0.0
 30
0.0
  3
*D38
  1
*D38
  0
LINE
  5
425
330
422
100
AcDbEntity
  8
8.Cotations
 62
     0
370
    -2
100
AcDbLine
 10
323.3500000000015
 20
10.5625
 30
0.0
 11
323.3500000000015
 21
19.18
 31
0.0
  0
LINE
  5
426
330
422
100
AcDbEntity
  8
8.Cotations
 62
     0
370
    -2
100
AcDbLine
 10
338.3500000000015
 20
10.5625
 30
0.0
 11
338.3500000000015
 21
19.18
 31
0.0
  0
LINE
  5
427
330
422
100
AcDbEntity
  8
8.Cotations
 62
     0
370
    -2
100
AcDbLine
 10
323.5300000000015
 20
19.0
 30
0.0
 11
330.2414285714301
 21
19.0
 31
0.0
  0
LINE
  5
428
330
422
100
AcDbEntity
  8
8.Cotations
 62
     0
370
    -2
100
AcDbLine
 10
338.1700000000015
 20
19.0
 30
0.0
 11
331.4585714285729
 21
19.0
 31
0.0
  0
SOLID
  5
429
330
422
100
AcDbEntity
  8
8.Cotations
 62
     0
100
AcDbTrace
 10
323.5300000000015
 20
19.03
 30
0.0
 11
323.5300000000015
 21
18.97
 31
0.0
 12
323.3500000000015
 22
19.0
 32
0.0
 13
323.3500000000015
 23
19.0
 33
0.0
  0
SOLID
  5
42A
330
422
100
AcDbEntity
  8
8.Cotations
 62
     0
100
AcDbTrace
 10
338.1700000000015
 20
18.97
 30
0.0
 11
338.1700000000015
 21
19.03
 31
0.0
 12
338.3500000000015
 22
19.0
 32
0.0
 13
338.3500000000015
 23
19.0
 33
0.0
  0
MTEXT
  5
42B
330
422
100
AcDbEntity
  8
8.Cotations
 62
     0
100
AcDbMText
 10
330.8500000000015
 20
19.0
 30
0.0
 40
0.18
 41
0.0
 46
0.0
 71
     5
 72
     1
  1
\A1;15.0000
 73
     1
 44
1.0
  0
POINT
  5
42C
330
422
100
AcDbEntity
  8
Defpoints
 62
     0
100
AcDbPoint
 10
323.3500000000015
 20
10.5
 30
0.0
  0
POINT
  5
42D
330
422
100
AcDbEntity
  8
Defpoints
 62
     0
100
AcDbPoint
 10
338.3500000000015
 20
10.5
 30
0.0
  0
POINT
  5
42E
330
422
100
AcDbEntity
  8
Defpoints
 62
     0
100
AcDbPoint
 10
338.3500000000015
 20
19.0
 30
0.0
  0
ENDBLK
  5
424
330
422
100
AcDbEntity
  8
0
100
AcDbBlockEnd
  0
BLOCK
  5
430
330
42F
100
AcDbEntity
  8
0
100
AcDbBlockBegin
  2
*D39
 70
     1
 10
0.0
 20
0.0
 30
0.0
  3
*D39
  1
*D39
  0
LINE
  5
432
330
42F
100
AcDbEntity
  8
8.Cotations
 62
     0
370
    -2
100
AcDbLine
 10
459.0
 20
11.5625
 30
0.0
 11
459.0
 21
23.18
 31
0.0
  0
LINE
  5
433
330
42F
100
AcDbEntity
  8
8.Cotations
 62
     0
370
    -2
100
AcDbLine
 10
474.0
 20
11.5625
 30
0.0
 11
474.0
 21
23.18
 31
0.0
  0
LINE
  5
434
330
42F
100
AcDbEntity
  8
8.Cotations
 62
     0
370
    -2
100
AcDbLine
 10
459.18
 20
23.0
 30
0.0
 11
465.8914285714286
 21
23.0
 31
0.0
  0
LINE
  5
435
330
42F
100
AcDbEntity
  8
8.Cotations
 62
     0
370
    -2
100
AcDbLine
 10
473.82
 20
23.0
 30
0.0
 11
467.1085714285714
 21
23.0
 31
0.0
  0
SOLID
  5
436
330
42F
100
AcDbEntity
  8
8.Cotations
 62
     0
100
AcDbTrace
 10
459.18
 20
23.03
 30
0.0
 11
459.18
 21
22.97
 31
0.0
 12
459.0
 22
23.0
 32
0.0
 13
459.0
 23
23.0
 33
0.0
  0
SOLID
  5
437
330
42F
100
AcDbEntity
  8
8.Cotations
 62
     0
100
AcDbTrace
 10
473.82
 20
22.97
 30
0.0
 11
473.82
 21
23.03
 31
0.0
 12
474.0
 22
23.0
 32
0.0
 13
474.0
 23
23.0
 33
0.0
  0
MTEXT
  5
438
330
42F
100
AcDbEntity
  8
8.Cotations
 62
     0
100
AcDbMText
 10
466.5
 20
23.0
 30
0.0
 40
0.18
 41
0.0
 46
0.0
 71
     5
 72
     1
  1
\A1;15.0000
 73
     1
 44
1.0
  0
POINT
  5
439
330
42F
100
AcDbEntity
  8
Defpoints
 62
     0
100
AcDbPoint
 10
459.0
 20
11.5
 30
0.0
  0
POINT
  5
43A
330
42F
100
AcDbEntity
  8
Defpoints
 62
     0
100
AcDbPoint
 10
474.0
 20
11.5
 30
0.0
  0
POINT
  5
43B
330
42F
100
AcDbEntity
  8
Defpoints
 62
     0
100
AcDbPoint
 10
474.0
 20
23.0
 30
0.0
  0
ENDBLK
  5
431
330
42F
100
AcDbEntity
  8
0
100
AcDbBlockEnd
  0
ENDSEC
  0
SECTION
  2
ENTITIES
  0
LINE
  5
24
330
1B8
100
AcDbEntity
  8
3.Axes
100
AcDbLine
 10
29.16242248053121
 20
0.0
 30
0.0
 11
629.1624224805312
 21
0.0
 31
0.0
  0
LINE
  5
25
330
1B8
100
AcDbEntity
  8
6.Epure
100
AcDbLine
 10
528.0
 20
-85.0
 30
0.0
 11
528.0
 21
-55.0
 31
0.0
  0
LINE
  5
26
330
1B8
100
AcDbEntity
  8
6.Epure
100
AcDbLine
 10
504.0
 20
-78.0
 30
0.0
 11
504.0
 21
-62.0
 31
0.0
  0
LINE
  5
27
330
1B8
100
AcDbEntity
  8
6.Epure
100
AcDbLine
 10
488.0
 20
-78.0
 30
0.0
 11
488.0
 21
-62.0
 31
0.0
  0
LINE
  5
28
330
1B8
100
AcDbEntity
  8
6.Epure
100
AcDbLine
 10
474.0
 20
-78.0
 30
0.0
 11
474.0
 21
-62.0
 31
0.0
  0
LINE
  5
29
330
1B8
100
AcDbEntity
  8
6.Epure
100
AcDbLine
 10
449.0
 20
-78.0
 30
0.0
 11
449.0
 21
-62.0
 31
0.0
  0
LINE
  5
2A
330
1B8
100
AcDbEntity
  8
6.Epure
100
AcDbLine
 10
404.0
 20
-78.0
 30
0.0
 11
404.0
 21
-62.0
 31
0.0
  0
LINE
  5
2B
330
1B8
100
AcDbEntity
  8
6.Epure
100
AcDbLine
 10
372.6
 20
-78.0
 30
0.0
 11
372.6
 21
-62.0
 31
0.0
  0
LINE
  5
2C
330
1B8
100
AcDbEntity
  8
6.Epure
100
AcDbLine
 10
347.1
 20
-78.0
 30
0.0
 11
347.1
 21
-62.0
 31
0.0
  0
LINE
  5
2D
330
1B8
100
AcDbEntity
  8
6.Epure
100
AcDbLine
 10
313.1
 20
-78.0
 30
0.0
 11
313.1
 21
-62.0
 31
0.0
  0
LINE
  5
2E
330
1B8
100
AcDbEntity
  8
6.Epure
100
AcDbLine
 10
280.1
 20
-78.0
 30
0.0
 11
280.1
 21
-62.0
 31
0.0
  0
LINE
  5
2F
330
1B8
100
AcDbEntity
  8
6.Epure
100
AcDbLine
 10
256.1
 20
-78.0
 30
0.0
 11
256.1
 21
-62.0
 31
0.0
  0
LINE
  5
30
330
1B8
100
AcDbEntity
  8
6.Epure
100
AcDbLine
 10
241.4
 20
-78.0
 30
0.0
 11
241.4
 21
-62.0
 31
0.0
  0
LINE
  5
31
330
1B8
100
AcDbEntity
  8
6.Epure
100
AcDbLine
 10
117.4
 20
-78.0
 30
0.0
 11
117.4
 21
-62.0
 31
0.0
  0
LINE
  5
32
330
1B8
100
AcDbEntity
  8
6.Epure
100
AcDbLine
 10
100.4
 20
-78.0
 30
0.0
 11
100.4
 21
-62.0
 31
0.0
  0
LINE
  5
33
330
1B8
100
AcDbEntity
  8
1.Contours
100
AcDbLine
 10
100.4
 20
11.5
 30
0.0
 11
117.4
 21
11.5
 31
0.0
  0
LINE
  5
34
330
1B8
100
AcDbEntity
  8
1.Contours
100
AcDbLine
 10
117.4
 20
8.0
 30
0.0
 11
117.4
 21
11.5
 31
0.0
  0
LINE
  5
35
330
1B8
100
AcDbEntity
  8
1.Contours
100
AcDbLine
 10
117.4
 20
8.0
 30
0.0
 11
251.9000000000013
 21
8.0
 31
0.0
  0
SPLINE
  5
36
330
1B8
100
AcDbEntity
  8
1.Contours
100
AcDbSpline
210
0.0
220
0.0
230
1.0
 70
     8
 71
     3
 72
     9
 73
     5
 74
     3
 42
0.000000001
 43
0.0000000001
 44
0.0
 40
0.0
 40
0.0
 40
0.0
 40
0.0
 40
24.99999999999989
 40
49.59674775249758
 40
49.59674775249758
 40
49.59674775249758
 40
49.59674775249758
 10
504.0000000000001
 20
8.0
 30
0.0
 10
512.1377207427311
 20
9.98213928021719
 30
0.0
 10
528.2819000610306
 20
13.91444575586717
 30
0.0
 10
542.7999803456302
 20
21.9933774899169
 30
0.0
 10
550.0
 20
26.0
 30
0.0
 11
504.0000000000001
 21
8.0
 31
0.0
 11
528.0
 21
15.0
 31
0.0
 11
550.0
 21
26.0
 31
0.0
  0
LINE
  5
37
330
1B8
100
AcDbEntity
  8
1.Contours
100
AcDbLine
 10
100.4
 20
11.5
 30
0.0
 11
100.4
 21
14.0
 31
0.0
  0
ARC
  5
38
330
1B8
100
AcDbEntity
  8
1.Contours
100
AcDbCircle
 10
144.4000000000001
 20
15.50000000000001
 30
0.0
 40
0.9999999999999716
100
AcDbArc
 50
0.0
 51
180.0
  0
LINE
  5
3A
330
1B8
100
AcDbEntity
  8
1.Contours
100
AcDbLine
 10
170.4
 20
13.0
 30
0.0
 11
170.4
 21
14.0
 31
0.0
  0
ARC
  5
3B
330
1B8
100
AcDbEntity
  8
1.Contours
100
AcDbCircle
 10
155.4000000000001
 20
14.50000000000001
 30
0.0
 40
0.9999999999999716
100
AcDbArc
 50
0.0
 51
180.0
  0
LINE
  5
3C
330
1B8
100
AcDbEntity
  8
1.Contours
100
AcDbLine
 10
145.4
 20
15.50000000000001
 30
0.0
 11
146.4
 21
15.50000000000001
 31
0.0
  0
LINE
  5
3D
330
1B8
100
AcDbEntity
  8
1.Contours
100
AcDbLine
 10
156.4
 20
14.50000000000001
 30
0.0
 11
157.4
 21
14.50000000000001
 31
0.0
  0
LINE
  5
3E
330
1B8
100
AcDbEntity
  8
1.Contours
100
AcDbLine
 10
153.4000000000001
 20
14.50000000000001
 30
0.0
 11
154.4000000000001
 21
14.50000000000001
 31
0.0
  0
LINE
  5
3F
330
1B8
100
AcDbEntity
  8
1.Contours
100
AcDbLine
 10
142.4000000000001
 20
15.50000000000001
 30
0.0
 11
143.4000000000001
 21
15.50000000000001
 31
0.0
  0
LINE
  5
40
330
1B8
100
AcDbEntity
  8
1.Contours
100
AcDbLine
 10
140.4
 20
14.0
 30
0.0
 11
140.4
 21
14.0
 31
0.0
  0
LINE
  5
41
330
1B8
100
AcDbEntity
  8
1.Contours
100
AcDbLine
 10
140.4
 20
14.0
 30
0.0
 11
140.4
 21
14.0
 31
0.0
  0
ARC
  5
42
330
1B8
100
AcDbEntity
  8
1.Contours
100
AcDbCircle
 10
139.8556238344225
 20
17.40749834286707
 30
0.0
 40
3.18
100
AcDbArc
 50
257.4371150083435
 51
323.1413998036571
  0
ARC
  5
43
330
1B8
100
AcDbEntity
  8
1.Contours
100
AcDbCircle
 10
150.5855654600402
 20
19.79895822028072
 30
0.0
 40
6.0
100
AcDbArc
 50
225.7656929323475
 51
297.9741023593406
  0
ARC
  5
45
330
1B8
100
AcDbEntity
  8
1.Contours
100
AcDbCircle
 10
165.4168611667235
 20
53.68839033481065
 30
0.0
 40
40.0
100
AcDbArc
 50
258.4383900131717
 51
277.1564136632966
  0
CIRCLE
  5
46
330
1B8
100
AcDbEntity
  8
6.Epure
100
AcDbCircle
 10
241.4000000000001
 20
-70.0
 30
0.0
 40
3.4
  0
CIRCLE
  5
47
330
1B8
100
AcDbEntity
  8
6.Epure
100
AcDbCircle
 10
256.1
 20
-70.0
 30
0.0
 40
4.2
  0
CIRCLE
  5
48
330
1B8
100
AcDbEntity
  8
6.Epure
100
AcDbCircle
 10
280.1
 20
-70.0
 30
0.0
 40
3.7
  0
CIRCLE
  5
49
330
1B8
100
AcDbEntity
  8
6.Epure
100
AcDbCircle
 10
313.1
 20
-70.0
 30
0.0
 40
4.05
  0
CIRCLE
  5
4A
330
1B8
100
AcDbEntity
  8
6.Epure
100
AcDbCircle
 10
347.1
 20
-70.0
 30
0.0
 40
3.5
  0
CIRCLE
  5
4B
330
1B8
100
AcDbEntity
  8
6.Epure
100
AcDbCircle
 10
372.6
 20
-70.0
 30
0.0
 40
5.0
  0
CIRCLE
  5
4C
330
1B8
100
AcDbEntity
  8
6.Epure
100
AcDbCircle
 10
404.0
 20
-70.0
 30
0.0
 40
3.7
  0
CIRCLE
  5
4D
330
1B8
100
AcDbEntity
  8
6.Epure
100
AcDbCircle
 10
488.0
 20
-70.0
 30
0.0
 40
4.25
  0
CIRCLE
  5
4E
330
1B8
100
AcDbEntity
  8
6.Epure
100
AcDbCircle
 10
449.0
 20
-70.0
 30
0.0
 40
3.6
  0
LINE
  5
4F
330
1B8
100
AcDbEntity
  8
1.Contours
100
AcDbLine
 10
474.0
 20
11.5
 30
0.0
 11
459.0
 21
11.5
 31
0.0
  0
LINE
  5
50
330
1B8
100
AcDbEntity
  8
1.Contours
100
AcDbLine
 10
459.0
 20
11.5
 30
0.0
 11
459.0
 21
13.0
 31
0.0
  0
LINE
  5
51
330
1B8
100
AcDbEntity
  8
1.Contours
100
AcDbLine
 10
459.0
 20
13.0
 30
0.0
 11
377.5999999999999
 21
13.0
 31
0.0
  0
LINE
  5
52
330
1B8
100
AcDbEntity
  8
1.Contours
100
AcDbLine
 10
474.0
 20
11.5
 30
0.0
 11
474.0
 21
8.0
 31
0.0
  0
ARC
  5
53
330
1B8
100
AcDbEntity
  8
1.Contours
100
AcDbCircle
 10
469.0
 20
7.66666666666627
 30
0.0
 40
11.33333333333347
100
AcDbArc
 50
28.07248693585485
 51
151.9275130641454
  0
LINE
  5
54
330
1B8
100
AcDbEntity
  8
1.Contours
100
AcDbLine
 10
478.9999999999999
 20
13.0
 30
0.0
 11
488.0
 21
13.0
 31
0.0
  0
ARC
  5
55
330
1B8
100
AcDbEntity
  8
1.Contours
100
AcDbCircle
 10
480.5687659609162
 20
189.0784360793289
 30
0.0
 40
176.2351806294247
100
AcDbArc
 50
272.4166833222183
 51
292.99749927022
  0
ARC
  5
57
330
1B8
100
AcDbEntity
  8
1.Contours
100
AcDbCircle
 10
549.5907876977329
 20
26.34325938585507
 30
0.0
 40
0.5341176970521682
100
AcDbArc
 50
320.0090808330261
 51
108.3929390502121
  0
LINE
  5
59
330
1B8
100
AcDbEntity
  8
3.Axes
100
AcDbLine
 10
241.4000000000001
 20
-70.0
 30
0.0
 11
241.4000000000001
 21
80.0
 31
0.0
  0
LINE
  5
5A
330
1B8
100
AcDbEntity
  8
3.Axes
100
AcDbLine
 10
256.1
 20
-70.0
 30
0.0
 11
256.1
 21
20.0
 31
0.0
  0
LINE
  5
5B
330
1B8
100
AcDbEntity
  8
3.Axes
100
AcDbLine
 10
280.1
 20
-70.0
 30
0.0
 11
280.1
 21
20.0
 31
0.0
  0
LINE
  5
5C
330
1B8
100
AcDbEntity
  8
3.Axes
100
AcDbLine
 10
313.1
 20
-70.0
 30
0.0
 11
313.1
 21
80.0
 31
0.0
  0
LINE
  5
5D
330
1B8
100
AcDbEntity
  8
3.Axes
100
AcDbLine
 10
347.1
 20
-70.0
 30
0.0
 11
347.1
 21
20.0
 31
0.0
  0
LINE
  5
5E
330
1B8
100
AcDbEntity
  8
3.Axes
100
AcDbLine
 10
372.6
 20
-70.0
 30
0.0
 11
372.6
 21
20.0
 31
0.0
  0
LINE
  5
5F
330
1B8
100
AcDbEntity
  8
3.Axes
100
AcDbLine
 10
404.0
 20
-70.0
 30
0.0
 11
404.0
 21
80.0
 31
0.0
  0
LINE
  5
60
330
1B8
100
AcDbEntity
  8
3.Axes
100
AcDbLine
 10
449.0
 20
-70.0
 30
0.0
 11
449.0
 21
80.0
 31
0.0
  0
LINE
  5
61
330
1B8
100
AcDbEntity
  8
3.Axes
100
AcDbLine
 10
488.0
 20
-70.0
 30
0.0
 11
488.0
 21
80.0
 31
0.0
  0
LINE
  5
62
330
1B8
100
AcDbEntity
  8
3.Axes
100
AcDbLine
 10
226.4000000000001
 20
49.98990390613332
 30
0.0
 11
256.4000000000001
 21
49.98990390613332
 31
0.0
  0
LINE
  5
64
330
1B8
100
AcDbEntity
  8
3.Axes
100
AcDbLine
 10
298.1
 20
49.98990390613332
 30
0.0
 11
328.1
 21
49.98990390613332
 31
0.0
  0
LINE
  5
65
330
1B8
100
AcDbEntity
  8
3.Axes
100
AcDbLine
 10
389.0
 20
49.98990390613332
 30
0.0
 11
419.0
 21
49.98990390613332
 31
0.0
  0
LINE
  5
66
330
1B8
100
AcDbEntity
  8
3.Axes
100
AcDbLine
 10
434.0
 20
49.98990390613332
 30
0.0
 11
464.0
 21
49.98990390613332
 31
0.0
  0
LINE
  5
67
330
1B8
100
AcDbEntity
  8
3.Axes
100
AcDbLine
 10
473.0
 20
49.98990390613332
 30
0.0
 11
503.0
 21
49.98990390613332
 31
0.0
  0
LINE
  5
68
330
1B8
100
AcDbEntity
  8
Bec
100
AcDbLine
 10
117.4
 20
0.0
 30
0.0
 11
117.4
 21
8.0
 31
0.0
  0
LINE
  5
69
330
1B8
100
AcDbEntity
  8
Bec
100
AcDbLine
 10
117.4
 20
11.5
 30
0.0
 11
100.4
 21
11.5
 31
0.0
  0
LINE
  5
6A
330
1B8
100
AcDbEntity
  8
Bec
100
AcDbLine
 10
100.4
 20
11.5
 30
0.0
 11
100.4
 21
14.0
 31
0.0
  0
LINE
  5
6F
330
1B8
100
AcDbEntity
  8
Bec
100
AcDbLine
 10
100.4
 20
-11.49999999999999
 30
0.0
 11
100.4
 21
-14.0
 31
0.0
  0
LINE
  5
70
330
1B8
100
AcDbEntity
  8
Bec
100
AcDbLine
 10
58.40000000000001
 20
10.00000000000001
 30
0.0
 11
100.4
 21
14.00000000000002
 31
0.0
  0
ARC
  5
71
330
1B8
100
AcDbEntity
  8
Bec
100
AcDbCircle
 10
58.46653937319905
 20
139.9767455589902
 30
0.0
 40
150.0
100
AcDbArc
 50
258.9341846778773
 51
266.5177575170172
  0
LINE
  5
73
330
1B8
100
AcDbEntity
  8
Bec
100
AcDbLine
 10
29.67607058823529
 20
-7.234357647058826
 30
0.0
 11
41.73333333333334
 21
0.0000000000000036
 31
0.0
  0
LINE
  5
76
330
1B8
100
AcDbEntity
  8
Bec
 62
     6
420
 16711935
100
AcDbLine
 10
94.2131117508964
 20
-15.99309151648976
 30
0.0
 11
94.42072545053075
 21
-13.50172712087757
 31
0.0
  0
LINE
  5
77
330
1B8
100
AcDbEntity
  8
Bec
 62
     6
420
 16711935
100
AcDbLine
 10
94.42072545053075
 20
-13.50172712087757
 30
0.0
 11
59.63904881793667
 21
-10.60325406816137
 31
0.0
  0
LINE
  5
78
330
1B8
100
AcDbEntity
  8
Bec
 62
     6
420
 16711935
100
AcDbLine
 10
94.2131117508964
 20
-15.99309151648976
 30
0.0
 11
58.33746445408073
 21
-13.0034542417552
 31
0.0
  0
ARC
  5
79
330
1B8
100
AcDbEntity
  8
Bec
 62
     6
420
 16711935
100
AcDbCircle
 10
18.8478685063145
 20
-157.7120297025141
 30
0.0
 40
150.0
100
AcDbArc
 50
74.7361767255245
 51
85.95657497134995
  0
LINE
  5
7B
330
1B8
100
AcDbEntity
  8
1.Contours
100
AcDbLine
 10
459.0
 20
-11.50000000000184
 30
0.0
 11
459.0
 21
-13.00000000000116
 31
0.0
  0
LINE
  5
7C
330
1B8
100
AcDbEntity
  8
1.Contours
100
AcDbLine
 10
459.0
 20
-13.00000000000116
 30
0.0
 11
170.4
 21
-13.00000000000004
 31
0.0
  0
ARC
  5
7E
330
1B8
100
AcDbEntity
  8
1.Contours
100
AcDbCircle
 10
469.0
 20
-7.666666666668747
 30
0.0
 40
11.33333333333347
100
AcDbArc
 50
208.0724869358546
 51
331.9275130641452
  0
LINE
  5
7F
330
1B8
100
AcDbEntity
  8
1.Contours
100
AcDbLine
 10
478.9999999999999
 20
-12.99999999999995
 30
0.0
 11
488.0
 21
-12.99999999999918
 31
0.0
  0
ARC
  5
80
330
1B8
100
AcDbEntity
  8
1.Contours
100
AcDbCircle
 10
480.5687659609162
 20
-189.078436079329
 30
0.0
 40
176.2351806294247
100
AcDbArc
 50
67.00250072977998
 51
87.58331667778174
  0
ARC
  5
82
330
1B8
100
AcDbEntity
  8
1.Contours
100
AcDbCircle
 10
549.5907876977329
 20
-26.34325938585479
 30
0.0
 40
0.5341176970521682
100
AcDbArc
 50
251.6070609497879
 51
39.99091916697384
  0
LINE
  5
86
330
1B8
100
AcDbEntity
  8
1.Contours
100
AcDbLine
 10
100.4
 20
-11.5
 30
0.0
 11
100.4
 21
-14.0
 31
0.0
  0
ARC
  5
88
330
1B8
100
AcDbEntity
  8
1.Contours
100
AcDbCircle
 10
144.4000000000001
 20
-15.49999999999998
 30
0.0
 40
0.9999999999999716
100
AcDbArc
 50
180.0
 51
0.0
  0
LINE
  5
89
330
1B8
100
AcDbEntity
  8
1.Contours
100
AcDbLine
 10
170.4
 20
-13.00000000000004
 30
0.0
 11
170.4
 21
-13.99999999999999
 31
0.0
  0
ARC
  5
8A
330
1B8
100
AcDbEntity
  8
1.Contours
100
AcDbCircle
 10
155.4000000000001
 20
-14.49999999999996
 30
0.0
 40
0.9999999999999716
100
AcDbArc
 50
180.0
 51
0.0
  0
LINE
  5
8B
330
1B8
100
AcDbEntity
  8
1.Contours
100
AcDbLine
 10
145.4
 20
-15.5
 30
0.0
 11
146.4
 21
-15.49999999999997
 31
0.0
  0
LINE
  5
8C
330
1B8
100
AcDbEntity
  8
1.Contours
100
AcDbLine
 10
156.4
 20
-14.50000000000001
 30
0.0
 11
157.4
 21
-14.49999999999997
 31
0.0
  0
LINE
  5
8D
330
1B8
100
AcDbEntity
  8
1.Contours
100
AcDbLine
 10
153.4000000000001
 20
-14.50000000000002
 30
0.0
 11
154.4000000000001
 21
-14.49999999999999
 31
0.0
  0
LINE
  5
8E
330
1B8
100
AcDbEntity
  8
1.Contours
100
AcDbLine
 10
142.4000000000001
 20
-15.49999999999996
 30
0.0
 11
143.4000000000001
 21
-15.50000000000003
 31
0.0
  0
LINE
  5
8F
330
1B8
100
AcDbEntity
  8
1.Contours
100
AcDbLine
 10
140.4
 20
-14.00000000000004
 30
0.0
 11
140.4
 21
-14.00000000000004
 31
0.0
  0
LINE
  5
90
330
1B8
100
AcDbEntity
  8
1.Contours
100
AcDbLine
 10
140.4
 20
-14.00000000000004
 30
0.0
 11
140.4
 21
-14.00000000000004
 31
0.0
  0
ARC
  5
91
330
1B8
100
AcDbEntity
  8
1.Contours
100
AcDbCircle
 10
139.8556238344225
 20
-17.40749834286709
 30
0.0
 40
3.18
100
AcDbArc
 50
36.85860019634289
 51
104.0825706373619
  0
ARC
  5
92
330
1B8
100
AcDbEntity
  8
1.Contours
100
AcDbCircle
 10
150.5855654600402
 20
-19.79895822028069
 30
0.0
 40
6.0
100
AcDbArc
 50
62.02589764065939
 51
134.2343070676525
  0
ARC
  5
93
330
1B8
100
AcDbEntity
  8
1.Contours
100
AcDbCircle
 10
165.4168611667235
 20
-53.68839033481062
 30
0.0
 40
40.0
100
AcDbArc
 50
82.84358633670342
 51
101.5616099868283
  0
LINE
  5
96
330
1B8
100
AcDbEntity
  8
1.Contours
100
AcDbLine
 10
550.0
 20
26.0
 30
0.0
 11
550.0
 21
-25.99999999999958
 31
0.0
  0
LINE
  5
9A
330
1B8
100
AcDbEntity
  8
Bec
100
AcDbLine
 10
117.4
 20
8.0
 30
0.0
 11
66.1234074261368
 21
8.0
 31
0.0
  0
LINE
  5
9B
330
1B8
100
AcDbEntity
  8
Bec
100
AcDbLine
 10
62.99999999999999
 20
-0.5690527340823905
 30
0.0
 11
62.99999999999999
 21
-11.0
 31
0.0
  0
LINE
  5
9C
330
1B8
100
AcDbEntity
  8
Bec
100
AcDbLine
 10
100.4
 20
-14.0
 30
0.0
 11
100.4
 21
0.0
 31
0.0
  0
LINE
  5
9E
330
1B8
100
AcDbEntity
  8
1.Contours
100
AcDbLine
 10
100.4
 20
-14.00000000000001
 30
0.0
 11
100.4
 21
0.0
 31
0.0
  0
ARC
  5
9F
330
1B8
100
AcDbEntity
  8
1.Contours
100
AcDbCircle
 10
120.4
 20
64.7500000000043
 30
0.0
 40
81.25000000000418
100
AcDbArc
 50
255.7499673021971
 51
283.3524660232036
  0
ARC
  5
A0
330
1B8
100
AcDbEntity
  8
1.Contours
100
AcDbCircle
 10
120.4
 20
-64.7500000000043
 30
0.0
 40
81.25000000000418
100
AcDbArc
 50
76.6475339767897
 51
104.2500326978029
  0
LINE
  5
A1
330
1B8
100
AcDbEntity
  8
1.Contours
100
AcDbLine
 10
142.4
 20
-15.49999999999996
 30
0.0
 11
142.4
 21
0.0
 31
0.0
  0
LINE
  5
A2
330
1B8
100
AcDbEntity
  8
1.Contours
100
AcDbLine
 10
143.4000000000001
 20
-15.50000000000003
 30
0.0
 11
143.4000000000001
 21
0.0
 31
0.0
  0
LINE
  5
A3
330
1B8
100
AcDbEntity
  8
1.Contours
100
AcDbLine
 10
145.4
 20
-15.5
 30
0.0
 11
145.4
 21
0.0
 31
0.0
  0
LINE
  5
A4
330
1B8
100
AcDbEntity
  8
1.Contours
100
AcDbLine
 10
146.4
 20
-15.49999999999997
 30
0.0
 11
146.4
 21
0.0
 31
0.0
  0
LINE
  5
A5
330
1B8
100
AcDbEntity
  8
1.Contours
100
AcDbLine
 10
153.4000000000002
 20
-14.50000000000002
 30
0.0
 11
153.4000000000001
 21
0.0
 31
0.0
  0
LINE
  5
A6
330
1B8
100
AcDbEntity
  8
1.Contours
100
AcDbLine
 10
154.4000000000001
 20
-14.49999999999999
 30
0.0
 11
154.4000000000001
 21
0.0
 31
0.0
  0
LINE
  5
A7
330
1B8
100
AcDbEntity
  8
1.Contours
100
AcDbLine
 10
156.4
 20
-14.50000000000001
 30
0.0
 11
156.4
 21
0.0
 31
0.0
  0
LINE
  5
A8
330
1B8
100
AcDbEntity
  8
1.Contours
100
AcDbLine
 10
157.4
 20
-14.49999999999997
 30
0.0
 11
157.4
 21
0.0
 31
0.0
  0
LINE
  5
A9
330
1B8
100
AcDbEntity
  8
1.Contours
100
AcDbLine
 10
170.4
 20
-13.00000000000004
 30
0.0
 11
170.4
 21
0.0
 31
0.0
  0
LINE
  5
AA
330
1B8
100
AcDbEntity
  8
1.Contours
100
AcDbLine
 10
459.0
 20
-13.00000000000237
 30
0.0
 11
459.0
 21
0.0
 31
0.0
  0
LINE
  5
AB
330
1B8
100
AcDbEntity
  8
1.Contours
100
AcDbLine
 10
479.0000000000013
 20
-12.99999999999995
 30
0.0
 11
479.0000000000013
 21
0.0
 31
0.0
  0
ARC
  5
AC
330
1B8
100
AcDbEntity
  8
1.Contours
100
AcDbCircle
 10
487.9999999999999
 20
-0.0000000000000284
 30
0.0
 40
4.250000000000057
100
AcDbArc
 50
180.0
 51
0.0
  0
ARC
  5
AD
330
1B8
100
AcDbEntity
  8
1.Contours
100
AcDbCircle
 10
449.0
 20
-0.0000000000000568
 30
0.0
 40
3.599999999999966
100
AcDbArc
 50
180.0
 51
0.0
  0
LINE
  5
B0
330
1B8
100
AcDbEntity
  8
1.Contours
100
AcDbLine
 10
377.6
 20
8.0
 30
0.0
 11
377.6
 21
13.0
 31
0.0
  0
LINE
  5
B1
330
1B8
100
AcDbEntity
  8
1.Contours
100
AcDbLine
 10
367.6
 20
8.0
 30
0.0
 11
367.6
 21
13.0
 31
0.0
  0
LINE
  5
B2
330
1B8
100
AcDbEntity
  8
1.Contours
100
AcDbLine
 10
350.599999999997
 20
8.0
 30
0.0
 11
350.599999999997
 21
13.0
 31
0.0
  0
LINE
  5
B3
330
1B8
100
AcDbEntity
  8
1.Contours
100
AcDbLine
 10
343.600000000003
 20
8.0
 30
0.0
 11
343.600000000003
 21
13.0
 31
0.0
  0
LINE
  5
B4
330
1B8
100
AcDbEntity
  8
1.Contours
100
AcDbLine
 10
283.7999999999985
 20
8.0
 30
0.0
 11
283.7999999999985
 21
13.0
 31
0.0
  0
LINE
  5
B5
330
1B8
100
AcDbEntity
  8
1.Contours
100
AcDbLine
 10
276.4000000000015
 20
8.0
 30
0.0
 11
276.4000000000015
 21
13.0
 31
0.0
  0
LINE
  5
B6
330
1B8
100
AcDbEntity
  8
1.Contours
100
AcDbLine
 10
260.2999999999988
 20
8.0
 30
0.0
 11
260.2999999999988
 21
13.0
 31
0.0
  0
LINE
  5
B7
330
1B8
100
AcDbEntity
  8
1.Contours
100
AcDbLine
 10
251.9000000000013
 20
8.0
 30
0.0
 11
251.9000000000012
 21
13.0
 31
0.0
  0
LINE
  5
C2
330
1B8
100
AcDbEntity
  8
1.Contours
100
AcDbLine
 10
244.7999999999985
 20
37.4423941930464
 30
0.0
 11
244.7999999999985
 21
42.7483571100399
 31
0.0
  0
LINE
  5
C3
330
1B8
100
AcDbEntity
  8
1.Contours
100
AcDbLine
 10
238.0000000000016
 20
37.44239419304641
 30
0.0
 11
238.0000000000016
 21
42.74835711003993
 31
0.0
  0
LINE
  5
C4
330
1B8
100
AcDbEntity
  8
1.Contours
100
AcDbLine
 10
306.1430500429563
 20
53.9396946974524
 30
0.0
 11
303.4160790826442
 21
58.66294695147779
 31
0.0
  0
LINE
  5
C5
330
1B8
100
AcDbEntity
  8
1.Contours
100
AcDbLine
 10
313.1578558136056
 20
57.98969469744981
 30
0.0
 11
310.4308848532935
 21
62.7129469514752
 31
0.0
  0
LINE
  5
C6
330
1B8
100
AcDbEntity
  8
1.Contours
100
AcDbLine
 10
404.3421831312587
 20
57.98258247496629
 30
0.0
 11
407.0268776454246
 21
62.63260977630323
 31
0.0
  0
LINE
  5
C7
330
1B8
100
AcDbEntity
  8
1.Contours
100
AcDbLine
 10
410.7507711192635
 20
54.28258247496633
 30
0.0
 11
413.4354656334295
 21
58.93260977630322
 31
0.0
  0
LINE
  5
CA
330
1B8
100
AcDbEntity
  8
1.Contours
100
AcDbLine
 10
494.7777208558661
 20
54.23990390612843
 30
0.0
 11
500.2856623753073
 21
54.23990390612843
 31
0.0
  0
LINE
  5
CB
330
1B8
100
AcDbEntity
  8
1.Contours
100
AcDbLine
 10
494.7777208558662
 20
45.73990390613838
 30
0.0
 11
500.2856623753074
 21
45.73990390613838
 31
0.0
  0
LINE
  5
CE
330
1B8
100
AcDbEntity
  8
1.Contours
100
AcDbLine
 10
456.1442284397967
 20
53.58990390613337
 30
0.0
 11
461.4915971757018
 21
53.58990390613334
 31
0.0
  0
LINE
  5
CF
330
1B8
100
AcDbEntity
  8
1.Contours
100
AcDbLine
 10
456.1442284397967
 20
46.38990390613334
 30
0.0
 11
461.4915971757018
 21
46.38990390613336
 31
0.0
  0
LINE
  5
D0
330
1B8
100
AcDbEntity
  8
1.Contours
100
AcDbLine
 10
313.1
 20
13.0
 30
0.0
 11
283.7999999999985
 21
13.0
 31
0.0
  0
LINE
  5
D1
330
1B8
100
AcDbEntity
  8
1.Contours
100
AcDbLine
 10
343.600000000003
 20
13.0
 30
0.0
 11
343.600000000003
 21
13.0
 31
0.0
  0
LINE
  5
D3
330
1B8
100
AcDbEntity
  8
1.Contours
100
AcDbLine
 10
323.3500000000015
 20
10.5
 30
0.0
 11
323.3500000000015
 21
12.0
 31
0.0
  0
LINE
  5
D5
330
1B8
100
AcDbEntity
  8
1.Contours
100
AcDbLine
 10
323.3500000000015
 20
12.0
 30
0.0
 11
333.3500000000015
 21
12.0
 31
0.0
  0
LINE
  5
D6
330
1B8
100
AcDbEntity
  8
1.Contours
100
AcDbLine
 10
333.3500000000015
 20
12.0
 30
0.0
 11
333.3500000000015
 21
13.0
 31
0.0
  0
LINE
  5
D7
330
1B8
100
AcDbEntity
  8
1.Contours
100
AcDbLine
 10
333.3500000000015
 20
13.0
 30
0.0
 11
323.3500000000015
 21
13.0
 31
0.0
  0
LINE
  5
D8
330
1B8
100
AcDbEntity
  8
1.Contours
100
AcDbLine
 10
323.3500000000015
 20
13.0
 30
0.0
 11
323.3500000000015
 21
12.0
 31
0.0
  0
LINE
  5
D9
330
1B8
100
AcDbEntity
  8
1.Contours
100
AcDbLine
 10
323.3500000000015
 20
10.5
 30
0.0
 11
338.3500000000015
 21
10.5
 31
0.0
  0
LINE
  5
DA
330
1B8
100
AcDbEntity
  8
1.Contours
100
AcDbLine
 10
338.3500000000015
 20
10.5
 30
0.0
 11
338.3500000000015
 21
8.0
 31
0.0
  0
LINE
  5
DB
330
1B8
100
AcDbEntity
  8
1.Contours
100
AcDbLine
 10
323.3500000000015
 20
0.0
 30
0.0
 11
323.3500000000015
 21
-13.00000000000063
 31
0.0
  0
LINE
  5
DC
330
1B8
100
AcDbEntity
  8
1.Contours
100
AcDbLine
 10
333.3500000000015
 20
0.0
 30
0.0
 11
333.3500000000015
 21
-13.00000000000067
 31
0.0
  0
LINE
  5
DD
330
1B8
100
AcDbEntity
  8
3.Axes
  6
Continuous
370
    50
100
AcDbLine
 10
390.0
 20
-30.0
 30
0.0
 11
404.0
 21
-30.0
 31
0.0
  0
LINE
  5
DE
330
1B8
100
AcDbEntity
  8
3.Axes
  6
Continuous
370
    50
100
AcDbLine
 10
404.0
 20
-30.0
 30
0.0
 11
399.0925104956257
 21
-27.36385318027664
 31
0.0
  0
LINE
  5
DF
330
1B8
100
AcDbEntity
  8
3.Axes
  6
Continuous
370
    50
100
AcDbLine
 10
404.0
 20
-30.0
 30
0.0
 11
399.0925104956257
 21
-32.63614681972336
 31
0.0
  0
LINE
  5
E0
330
1B8
100
AcDbEntity
  8
3.Axes
  6
Continuous
370
    50
100
AcDbLine
 10
404.0
 20
-23.55294651360997
 30
0.0
 11
404.0
 21
-33.55294651360997
 31
0.0
  0
LINE
  5
E1
330
1B8
100
AcDbEntity
  8
3.Axes
370
    50
100
AcDbLine
 10
404.0
 20
-29.96961318027664
 30
0.0
 11
404.0
 21
-24.1362798469433
 31
0.0
  0
MTEXT
  5
E2
330
1B8
100
AcDbEntity
  8
3.Axes
100
AcDbMText
 10
393.3850559999999
 20
-25.89526399999998
 30
0.0
 40
1.0
 41
0.0
 46
0.0
 71
     5
 72
     1
  1
\H4;C
  7
textstyle0
 73
     1
 44
1.0
  0
LINE
  5
E3
330
1B8
100
AcDbEntity
  8
3.Axes
  6
Continuous
370
    50
100
AcDbLine
 10
390.0
 20
24.3648
 30
0.0
 11
404.0
 21
24.3648
 31
0.0
  0
LINE
  5
E4
330
1B8
100
AcDbEntity
  8
3.Axes
  6
Continuous
370
    50
100
AcDbLine
 10
404.0
 20
24.3648
 30
0.0
 11
399.0925104956257
 21
27.00094681972337
 31
0.0
  0
LINE
  5
E5
330
1B8
100
AcDbEntity
  8
3.Axes
  6
Continuous
370
    50
100
AcDbLine
 10
404.0
 20
24.3648
 30
0.0
 11
399.0925104956257
 21
21.72865318027664
 31
0.0
  0
LINE
  5
E6
330
1B8
100
AcDbEntity
  8
3.Axes
  6
Continuous
370
    50
100
AcDbLine
 10
404.0
 20
30.81185348639004
 30
0.0
 11
404.0
 21
20.81185348639004
 31
0.0
  0
LINE
  5
E7
330
1B8
100
AcDbEntity
  8
3.Axes
370
    50
100
AcDbLine
 10
404.0
 20
24.39518681972336
 30
0.0
 11
404.0
 21
30.2285201530567
 31
0.0
  0
MTEXT
  5
E8
330
1B8
100
AcDbEntity
  8
3.Axes
100
AcDbMText
 10
393.2985726574663
 20
29.37128011489795
 30
0.0
 40
1.0
 41
0.0
 46
0.0
 71
     5
 72
     1
  1
\H4;C
  7
textstyle1
 73
     1
 44
1.0
  0
LINE
  5
E9
330
1B8
100
AcDbEntity
  8
3.Axes
  6
Continuous
370
    50
100
AcDbLine
 10
434.9999999999999
 20
27.14551988510205
 30
0.0
 11
448.9999999999999
 21
27.14551988510205
 31
0.0
  0
LINE
  5
EA
330
1B8
100
AcDbEntity
  8
3.Axes
  6
Continuous
370
    50
100
AcDbLine
 10
448.9999999999999
 20
27.14551988510205
 30
0.0
 11
444.0925104956256
 21
29.78166670482542
 31
0.0
  0
LINE
  5
EB
330
1B8
100
AcDbEntity
  8
3.Axes
  6
Continuous
370
    50
100
AcDbLine
 10
448.9999999999999
 20
27.14551988510205
 30
0.0
 11
444.0925104956256
 21
24.50937306537869
 31
0.0
  0
LINE
  5
EC
330
1B8
100
AcDbEntity
  8
3.Axes
  6
Continuous
370
    50
100
AcDbLine
 10
448.9999999999999
 20
33.59257337149208
 30
0.0
 11
448.9999999999999
 21
23.59257337149208
 31
0.0
  0
LINE
  5
ED
330
1B8
100
AcDbEntity
  8
3.Axes
370
    50
100
AcDbLine
 10
448.9999999999999
 20
27.17590670482541
 30
0.0
 11
448.9999999999999
 21
33.00924003815875
 31
0.0
  0
MTEXT
  5
EE
330
1B8
100
AcDbEntity
  8
3.Axes
100
AcDbMText
 10
438.1865726574662
 20
32.0
 30
0.0
 40
1.0
 41
0.0
 46
0.0
 71
     5
 72
     1
  1
\H4;D
  7
textstyle2
 73
     1
 44
1.0
  0
LINE
  5
EF
330
1B8
100
AcDbEntity
  8
3.Axes
  6
Continuous
370
    50
100
AcDbLine
 10
433.0364484297132
 20
-27.20239586319503
 30
0.0
 11
447.0364484297132
 21
-27.20239586319503
 31
0.0
  0
LINE
  5
F0
330
1B8
100
AcDbEntity
  8
3.Axes
  6
Continuous
370
    50
100
AcDbLine
 10
447.0364484297132
 20
-27.20239586319503
 30
0.0
 11
442.1289589253389
 21
-24.56624904347166
 31
0.0
  0
LINE
  5
F1
330
1B8
100
AcDbEntity
  8
3.Axes
  6
Continuous
370
    50
100
AcDbLine
 10
447.0364484297132
 20
-27.20239586319503
 30
0.0
 11
442.1289589253389
 21
-29.83854268291839
 31
0.0
  0
LINE
  5
F2
330
1B8
100
AcDbEntity
  8
3.Axes
  6
Continuous
370
    50
100
AcDbLine
 10
447.0364484297132
 20
-20.755342376805
 30
0.0
 11
447.0364484297132
 21
-30.755342376805
 31
0.0
  0
LINE
  5
F3
330
1B8
100
AcDbEntity
  8
3.Axes
370
    50
100
AcDbLine
 10
447.0364484297132
 20
-27.17200904347167
 30
0.0
 11
447.0364484297132
 21
-21.33867571013833
 31
0.0
  0
MTEXT
  5
F4
330
1B8
100
AcDbEntity
  8
3.Axes
100
AcDbMText
 10
436.9306559999999
 20
-23.65577599999999
 30
0.0
 40
1.0
 41
0.0
 46
0.0
 71
     5
 72
     1
  1
\H4;D
  7
textstyle3
 73
     1
 44
1.0
  0
LINE
  5
F5
330
1B8
100
AcDbEntity
  8
3.Axes
  6
Continuous
370
    50
100
AcDbLine
 10
473.9974273425337
 20
27.86551988510205
 30
0.0
 11
487.9974273425337
 21
27.86551988510205
 31
0.0
  0
LINE
  5
F6
330
1B8
100
AcDbEntity
  8
3.Axes
  6
Continuous
370
    50
100
AcDbLine
 10
487.9974273425337
 20
27.86551988510205
 30
0.0
 11
483.0899378381594
 21
30.50166670482542
 31
0.0
  0
LINE
  5
F7
330
1B8
100
AcDbEntity
  8
3.Axes
  6
Continuous
370
    50
100
AcDbLine
 10
487.9974273425337
 20
27.86551988510205
 30
0.0
 11
483.0899378381594
 21
25.22937306537869
 31
0.0
  0
LINE
  5
F8
330
1B8
100
AcDbEntity
  8
3.Axes
  6
Continuous
370
    50
100
AcDbLine
 10
487.9974273425337
 20
34.31257337149209
 30
0.0
 11
487.9974273425337
 21
24.31257337149209
 31
0.0
  0
LINE
  5
F9
330
1B8
100
AcDbEntity
  8
3.Axes
370
    50
100
AcDbLine
 10
487.9974273425337
 20
27.89590670482541
 30
0.0
 11
487.9974273425337
 21
33.72924003815875
 31
0.0
  0
MTEXT
  5
FA
330
1B8
100
AcDbEntity
  8
3.Axes
100
AcDbMText
 10
478.0
 20
32.0
 30
0.0
 40
1.0
 41
0.0
 46
0.0
 71
     5
 72
     1
  1
\H4;E
  7
textstyle4
 73
     1
 44
1.0
  0
LINE
  5
FB
330
1B8
100
AcDbEntity
  8
3.Axes
  6
Continuous
370
    50
100
AcDbLine
 10
473.9999999999999
 20
-26.00000000000002
 30
0.0
 11
487.9999999999999
 21
-26.00000000000002
 31
0.0
  0
LINE
  5
FC
330
1B8
100
AcDbEntity
  8
3.Axes
  6
Continuous
370
    50
100
AcDbLine
 10
487.9999999999999
 20
-26.00000000000002
 30
0.0
 11
483.0925104956256
 21
-23.36385318027665
 31
0.0
  0
LINE
  5
FD
330
1B8
100
AcDbEntity
  8
3.Axes
  6
Continuous
370
    50
100
AcDbLine
 10
487.9999999999999
 20
-26.00000000000002
 30
0.0
 11
483.0925104956256
 21
-28.63614681972338
 31
0.0
  0
LINE
  5
FE
330
1B8
100
AcDbEntity
  8
3.Axes
  6
Continuous
370
    50
100
AcDbLine
 10
488.0
 20
-20.755342376805
 30
0.0
 11
488.0
 21
-30.755342376805
 31
0.0
  0
LINE
  5
FF
330
1B8
100
AcDbEntity
  8
3.Axes
370
    50
100
AcDbLine
 10
487.9999999999999
 20
-25.96961318027666
 30
0.0
 11
487.9999999999999
 21
-20.13627984694332
 31
0.0
  0
MTEXT
  5
100
330
1B8
100
AcDbEntity
  8
3.Axes
100
AcDbMText
 10
479.4491515702866
 20
-22.45338013680498
 30
0.0
 40
1.0
 41
0.0
 46
0.0
 71
     5
 72
     1
  1
\H4;E
  7
textstyle5
 73
     1
 44
1.0
  0
LINE
  5
101
330
1B8
100
AcDbEntity
  8
3.Axes
  6
Continuous
370
    50
100
AcDbLine
 10
299.1906433425337
 20
24.80465588510203
 30
0.0
 11
313.1906433425337
 21
24.80465588510203
 31
0.0
  0
LINE
  5
102
330
1B8
100
AcDbEntity
  8
3.Axes
  6
Continuous
370
    50
100
AcDbLine
 10
313.1906433425337
 20
24.80465588510203
 30
0.0
 11
308.2831538381594
 21
27.44080270482539
 31
0.0
  0
LINE
  5
103
330
1B8
100
AcDbEntity
  8
3.Axes
  6
Continuous
370
    50
100
AcDbLine
 10
313.1906433425337
 20
24.80465588510203
 30
0.0
 11
308.2831538381594
 21
22.16850906537866
 31
0.0
  0
LINE
  5
104
330
1B8
100
AcDbEntity
  8
3.Axes
  6
Continuous
370
    50
100
AcDbLine
 10
313.1906433425337
 20
31.25170937149206
 30
0.0
 11
313.1906433425337
 21
21.25170937149206
 31
0.0
  0
LINE
  5
105
330
1B8
100
AcDbEntity
  8
3.Axes
370
    50
100
AcDbLine
 10
313.1906433425337
 20
24.83504270482539
 30
0.0
 11
313.1906433425337
 21
30.66837603815873
 31
0.0
  0
MTEXT
  5
106
330
1B8
100
AcDbEntity
  8
3.Axes
100
AcDbMText
 10
300.0
 20
30.0
 30
0.0
 40
1.0
 41
0.0
 46
0.0
 71
     5
 72
     1
  1
\H4;B
  7
textstyle6
 73
     1
 44
1.0
  0
LINE
  5
107
330
1B8
100
AcDbEntity
  8
3.Axes
  6
Continuous
370
    50
100
AcDbLine
 10
299.1000000000001
 20
-26.60368773505542
 30
0.0
 11
313.1000000000001
 21
-26.60368773505542
 31
0.0
  0
LINE
  5
108
330
1B8
100
AcDbEntity
  8
3.Axes
  6
Continuous
370
    50
100
AcDbLine
 10
313.1000000000001
 20
-26.60368773505542
 30
0.0
 11
308.1925104956258
 21
-23.96754091533205
 31
0.0
  0
LINE
  5
109
330
1B8
100
AcDbEntity
  8
3.Axes
  6
Continuous
370
    50
100
AcDbLine
 10
313.1000000000001
 20
-26.60368773505542
 30
0.0
 11
308.1925104956258
 21
-29.23983455477878
 31
0.0
  0
LINE
  5
10A
330
1B8
100
AcDbEntity
  8
3.Axes
  6
Continuous
370
    50
100
AcDbLine
 10
313.1000000000001
 20
-20.15663424866538
 30
0.0
 11
313.1000000000001
 21
-30.15663424866538
 31
0.0
  0
LINE
  5
10B
330
1B8
100
AcDbEntity
  8
3.Axes
370
    50
100
AcDbLine
 10
313.1000000000001
 20
-26.57330091533206
 30
0.0
 11
313.1000000000001
 21
-20.73996758199872
 31
0.0
  0
MTEXT
  5
10C
330
1B8
100
AcDbEntity
  8
3.Axes
100
AcDbMText
 10
298.5077566574662
 20
-22.80939962015746
 30
0.0
 40
1.0
 41
0.0
 46
0.0
 71
     5
 72
     1
  1
\H4;B
  7
textstyle7
 73
     1
 44
1.0
  0
LINE
  5
10D
330
1B8
100
AcDbEntity
  8
3.Axes
  6
Continuous
370
    50
100
AcDbLine
 10
227.1873604297132
 20
25.05348788510204
 30
0.0
 11
241.1873604297132
 21
25.05348788510204
 31
0.0
  0
LINE
  5
10E
330
1B8
100
AcDbEntity
  8
3.Axes
  6
Continuous
370
    50
100
AcDbLine
 10
241.1873604297132
 20
25.05348788510204
 30
0.0
 11
236.2798709253388
 21
27.6896347048254
 31
0.0
  0
LINE
  5
10F
330
1B8
100
AcDbEntity
  8
3.Axes
  6
Continuous
370
    50
100
AcDbLine
 10
241.1873604297132
 20
25.05348788510204
 30
0.0
 11
236.2798709253388
 21
22.41734106537867
 31
0.0
  0
LINE
  5
110
330
1B8
100
AcDbEntity
  8
3.Axes
  6
Continuous
370
    50
100
AcDbLine
 10
241.1873604297132
 20
31.50054137149207
 30
0.0
 11
241.1873604297132
 21
21.50054137149207
 31
0.0
  0
LINE
  5
111
330
1B8
100
AcDbEntity
  8
3.Axes
370
    50
100
AcDbLine
 10
241.1873604297132
 20
25.0838747048254
 30
0.0
 11
241.1873604297132
 21
30.91720803815873
 31
0.0
  0
MTEXT
  5
112
330
1B8
100
AcDbEntity
  8
3.Axes
100
AcDbMText
 10
227.1836159999999
 20
30.091936
 30
0.0
 40
1.0
 41
0.0
 46
0.0
 71
     5
 72
     1
  1
\H4;A
  7
textstyle8
 73
     1
 44
1.0
  0
LINE
  5
113
330
1B8
100
AcDbEntity
  8
3.Axes
  6
Continuous
370
    50
100
AcDbLine
 10
227.4361924297131
 20
-26.20590411489795
 30
0.0
 11
241.4361924297131
 21
-26.20590411489795
 31
0.0
  0
LINE
  5
114
330
1B8
100
AcDbEntity
  8
3.Axes
  6
Continuous
370
    50
100
AcDbLine
 10
241.4361924297131
 20
-26.20590411489795
 30
0.0
 11
236.5287029253388
 21
-23.56975729517459
 31
0.0
  0
LINE
  5
115
330
1B8
100
AcDbEntity
  8
3.Axes
  6
Continuous
370
    50
100
AcDbLine
 10
241.4361924297131
 20
-26.20590411489795
 30
0.0
 11
236.5287029253388
 21
-28.84205093462132
 31
0.0
  0
LINE
  5
116
330
1B8
100
AcDbEntity
  8
3.Axes
  6
Continuous
370
    50
100
AcDbLine
 10
241.4361924297131
 20
-19.75885062850792
 30
0.0
 11
241.4361924297131
 21
-29.75885062850792
 31
0.0
  0
LINE
  5
117
330
1B8
100
AcDbEntity
  8
3.Axes
370
    50
100
AcDbLine
 10
241.4361924297131
 20
-26.17551729517459
 30
0.0
 11
241.4361924297131
 21
-20.34218396184126
 31
0.0
  0
MTEXT
  5
118
330
1B8
100
AcDbEntity
  8
3.Axes
100
AcDbMText
 10
229.1742719999999
 20
-22.411616
 30
0.0
 40
1.0
 41
0.0
 46
0.0
 71
     5
 72
     1
  1
\H4;A
  7
textstyle9
 73
     1
 44
1.0
  0
MTEXT
  5
11A
330
1B8
100
AcDbEntity
  8
3.Axes
100
AcDbMText
 10
226.1882880000003
 20
69.03629974829704
 30
0.0
 40
1.0
 41
0.0
 46
0.0
 71
     5
 72
     1
  1
\H4;A-A
  7
textstyle10
 73
     1
 44
1.0
  0
MTEXT
  5
11C
330
1B8
100
AcDbEntity
  8
3.Axes
100
AcDbMText
 10
295.861248
 20
68.28980374829705
 30
0.0
 40
1.0
 41
0.0
 46
0.0
 71
     5
 72
     1
  1
\H4;A-A
  7
textstyle11
 73
     1
 44
1.0
  0
MTEXT
  5
11D
330
1B8
100
AcDbEntity
  8
3.Axes
100
AcDbMText
 10
386.93376
 20
68.53863574829705
 30
0.0
 40
1.0
 41
0.0
 46
0.0
 71
     5
 72
     1
  1
\H4;C-C
  7
textstyle12
 73
     1
 44
1.0
  0
MTEXT
  5
11E
330
1B8
100
AcDbEntity
  8
3.Axes
100
AcDbMText
 10
436.948992
 20
71.27578774829703
 30
0.0
 40
1.0
 41
0.0
 46
0.0
 71
     5
 72
     1
  1
\H4;D-D
  7
textstyle13
 73
     1
 44
1.0
  0
MTEXT
  5
11F
330
1B8
100
AcDbEntity
  8
3.Axes
100
AcDbMText
 10
475.766784
 20
71.27578774829703
 30
0.0
 40
1.0
 41
0.0
 46
0.0
 71
     5
 72
     1
  1
\H4;E-E
  7
textstyle14
 73
     1
 44
1.0
  0
ARC
  5
122
330
1B8
100
AcDbEntity
  8
1.Contours
100
AcDbCircle
 10
241.4000000000001
 20
49.98990390613332
 30
0.0
 40
8.0
100
AcDbArc
 50
295.1506634125311
 51
244.8493365874684
  0
ARC
  5
123
330
1B8
100
AcDbEntity
  8
1.Contours
100
AcDbCircle
 10
241.4000000000001
 20
49.98990390613332
 30
0.0
 40
8.0
100
AcDbArc
 50
244.8493365874684
 51
294.2548328506499
  0
ARC
  5
124
330
1B8
100
AcDbEntity
  8
1.Contours
100
AcDbCircle
 10
241.4000000000001
 20
49.98990390613332
 30
0.0
 40
13.0
100
AcDbArc
 50
285.161368606603
 51
254.8386313933967
  0
ARC
  5
125
330
1B8
100
AcDbEntity
  8
1.Contours
100
AcDbCircle
 10
241.4000000000001
 20
49.98990390613332
 30
0.0
 40
13.0
100
AcDbArc
 50
254.8386313933967
 51
285.161368606603
  0
HATCH
  5
126
330
1B8
100
AcDbEntity
  8
7.Hachures
100
AcDbHatch
 10
0.0
 20
0.0
 30
0.0
210
0.0
220
0.0
230
1.0
  2
ANSI31
 70
     0
 71
     0
 91
        1
 92
        0
 93
        4
 72
     2
 10
241.4000000000001
 20
49.98990390613332
 40
8.0
 50
295.1506634125311
 51
604.8493365874684
 73
     1
 72
     1
 10
238.0000000000016
 20
42.74835711003993
 11
238.0000000000016
 21
37.44239419304641
 72
     2
 10
241.4000000000001
 20
49.98990390613332
 40
13.0
 50
105.1613686066033
 51
434.838631393397
 73
     0
 72
     1
 10
244.7999999999985
 20
37.44239419304639
 11
244.7999999999985
 21
42.7483571100399
 97
        0
 75
     0
 76
     1
 52
90.0
 41
0.4
 77
     0
 78
     1
 53
135.0
 43
0.0
 44
0.0
 45
-0.8980256121069154
 46
-0.8980256121069152
 79
     0
 98
        0
1001
ACAD
1010
0.0
1020
0.0
1030
0.0
  0
ARC
  5
127
330
1B8
100
AcDbEntity
  8
1.Contours
100
AcDbCircle
 10
313.1
 20
49.98990390613332
 30
0.0
 40
13.0
100
AcDbArc
 50
138.1519698072439
 51
101.8480301927566
  0
ARC
  5
128
330
1B8
100
AcDbEntity
  8
1.Contours
100
AcDbCircle
 10
313.1
 20
49.98990390613332
 30
0.0
 40
13.0
100
AcDbArc
 50
101.8480301927566
 51
138.1519698072439
  0
ARC
  5
129
330
1B8
100
AcDbEntity
  8
1.Contours
100
AcDbCircle
 10
313.1
 20
49.98990390613332
 30
0.0
 40
8.0
100
AcDbArc
 50
89.58563464547196
 51
150.4143653545285
  0
ARC
  5
12A
330
1B8
100
AcDbEntity
  8
1.Contours
100
AcDbCircle
 10
313.1
 20
49.98990390613332
 30
0.0
 40
8.0
100
AcDbArc
 50
150.4143653545285
 51
89.58563464547196
  0
HATCH
  5
12B
330
1B8
100
AcDbEntity
  8
7.Hachures
100
AcDbHatch
 10
0.0
 20
0.0
 30
0.0
210
0.0
220
0.0
230
1.0
  2
ANSI31
 70
     0
 71
     0
 91
        1
 92
        0
 93
        4
 72
     2
 10
313.1
 20
49.98990390613332
 40
13.0
 50
138.1519698072439
 51
461.8480301927566
 73
     1
 72
     1
 10
310.4308848532935
 20
62.71294695147519
 11
313.1578558136056
 21
57.98969469744981
 72
     2
 10
313.1
 20
49.98990390613332
 40
8.0
 50
270.414365354528
 51
569.5856346454716
 73
     0
 72
     1
 10
306.1430500429563
 20
53.93969469745244
 11
303.4160790826442
 21
58.66294695147781
 97
        0
 75
     0
 76
     1
 52
90.0
 41
0.4
 77
     0
 78
     1
 53
135.0
 43
0.0
 44
0.0
 45
-0.8980256121069154
 46
-0.8980256121069152
 79
     0
 98
        0
1001
ACAD
1010
0.0
1020
0.0
1030
0.0
  0
ARC
  5
12C
330
1B8
100
AcDbEntity
  8
1.Contours
100
AcDbCircle
 10
404.0
 20
49.98990390613332
 30
0.0
 40
8.0
100
AcDbArc
 50
87.5485459594841
 51
32.45145404051582
  0
ARC
  5
12D
330
1B8
100
AcDbEntity
  8
1.Contours
100
AcDbCircle
 10
404.0
 20
49.98990390613332
 30
0.0
 40
8.0
100
AcDbArc
 50
32.45145404051582
 51
87.5485459594841
  0
ARC
  5
12E
330
1B8
100
AcDbEntity
  8
1.Contours
100
AcDbCircle
 10
404.0
 20
49.98990390613332
 30
0.0
 40
13.0
100
AcDbArc
 50
43.46414034609204
 51
76.53585965390785
  0
ARC
  5
12F
330
1B8
100
AcDbEntity
  8
1.Contours
100
AcDbCircle
 10
404.0
 20
49.98990390613332
 30
0.0
 40
13.0
100
AcDbArc
 50
76.53585965390785
 51
43.46414034609204
  0
HATCH
  5
130
330
1B8
100
AcDbEntity
  8
7.Hachures
100
AcDbHatch
 10
0.0
 20
0.0
 30
0.0
210
0.0
220
0.0
230
1.0
  2
ANSI31
 70
     0
 71
     0
 91
        1
 92
        0
 93
        4
 72
     1
 10
404.3421831312587
 20
57.98258247496629
 11
407.0268776454246
 21
62.63260977630323
 72
     2
 10
404.0
 20
49.98990390613332
 40
13.0
 50
76.53585965390785
 51
403.4641403460921
 73
     1
 72
     1
 10
413.4354656334295
 20
58.93260977630322
 11
410.7507711192635
 21
54.28258247496633
 72
     2
 10
404.0
 20
49.98990390613332
 40
8.0
 50
327.5485459594842
 51
632.4514540405158
 73
     0
 97
        0
 75
     0
 76
     1
 52
90.0
 41
0.4
 77
     0
 78
     1
 53
135.0
 43
0.0
 44
0.0
 45
-0.8980256121069154
 46
-0.8980256121069152
 79
     0
 98
        0
1001
ACAD
1010
0.0
1020
0.0
1030
0.0
  0
ARC
  5
131
330
1B8
100
AcDbEntity
  8
1.Contours
100
AcDbCircle
 10
449.0
 20
49.98990390613332
 30
0.0
 40
8.0
100
AcDbArc
 50
26.74368395040337
 51
333.2563160495972
  0
ARC
  5
132
330
1B8
100
AcDbEntity
  8
1.Contours
100
AcDbCircle
 10
449.0
 20
49.98990390613332
 30
0.0
 40
8.0
100
AcDbArc
 50
333.2563160495972
 51
26.74368395040337
  0
ARC
  5
133
330
1B8
100
AcDbEntity
  8
1.Contours
100
AcDbCircle
 10
449.0
 20
49.98990390613332
 30
0.0
 40
13.0
100
AcDbArc
 50
343.923350168395
 51
16.0766498316052
  0
ARC
  5
134
330
1B8
100
AcDbEntity
  8
1.Contours
100
AcDbCircle
 10
449.0
 20
49.98990390613332
 30
0.0
 40
13.0
100
AcDbArc
 50
16.0766498316052
 51
343.923350168395
  0
HATCH
  5
135
330
1B8
100
AcDbEntity
  8
7.Hachures
100
AcDbHatch
 10
0.0
 20
0.0
 30
0.0
210
0.0
220
0.0
230
1.0
  2
ANSI31
 70
     0
 71
     0
 91
        1
 92
        0
 93
        4
 72
     1
 10
456.1442284397967
 20
53.58990390613337
 11
461.4915971757018
 21
53.58990390613334
 72
     2
 10
449.0
 20
49.98990390613332
 40
13.0
 50
16.0766498316052
 51
343.923350168395
 73
     1
 72
     1
 10
461.4915971757018
 20
46.38990390613335
 11
456.1442284397967
 21
46.38990390613334
 72
     2
 10
449.0
 20
49.98990390613332
 40
8.0
 50
26.74368395040276
 51
333.2563160495966
 73
     0
 97
        0
 75
     0
 76
     1
 52
90.0
 41
0.4
 77
     0
 78
     1
 53
135.0
 43
0.0
 44
0.0
 45
-0.8980256121069154
 46
-0.8980256121069152
 79
     0
 98
        0
1001
ACAD
1010
0.0
1020
0.0
1030
0.0
  0
ARC
  5
136
330
1B8
100
AcDbEntity
  8
1.Contours
100
AcDbCircle
 10
488.0
 20
49.98990390613332
 30
0.0
 40
8.0
100
AcDbArc
 50
32.08995125623896
 51
327.9100487437624
  0
ARC
  5
137
330
1B8
100
AcDbEntity
  8
1.Contours
100
AcDbCircle
 10
488.0
 20
49.98990390613332
 30
0.0
 40
8.0
100
AcDbArc
 50
327.9100487437624
 51
32.08995125623896
  0
ARC
  5
138
330
1B8
100
AcDbEntity
  8
1.Contours
100
AcDbCircle
 10
488.0
 20
49.98990390613332
 30
0.0
 40
13.0
100
AcDbArc
 50
19.08212480358005
 51
340.9178751964208
  0
ARC
  5
139
330
1B8
100
AcDbEntity
  8
1.Contours
100
AcDbCircle
 10
488.0
 20
49.98990390613332
 30
0.0
 40
13.0
100
AcDbArc
 50
340.9178751964208
 51
19.08212480358005
  0
HATCH
  5
13A
330
1B8
100
AcDbEntity
  8
7.Hachures
100
AcDbHatch
 10
0.0
 20
0.0
 30
0.0
210
0.0
220
0.0
230
1.0
  2
ANSI31
 70
     0
 71
     0
 91
        1
 92
        0
 93
        4
 72
     2
 10
488.0
 20
49.98990390613332
 40
8.0
 50
32.08995125623896
 51
327.9100487437624
 73
     1
 72
     1
 10
494.7777208558662
 20
45.73990390613837
 11
500.2856623753074
 21
45.73990390613838
 72
     2
 10
488.0
 20
49.98990390613332
 40
13.0
 50
19.08212480357924
 51
340.9178751964199
 73
     0
 72
     1
 10
500.2856623753073
 20
54.23990390612843
 11
494.7777208558661
 21
54.23990390612843
 97
        0
 75
     0
 76
     1
 52
90.0
 41
0.4
 77
     0
 78
     1
 53
135.0
 43
0.0
 44
0.0
 45
-0.8980256121069154
 46
-0.8980256121069152
 79
     0
 98
        0
1001
ACAD
1010
0.0
1020
0.0
1030
0.0
  0
LINE
  5
13B
330
1B8
100
AcDbEntity
  8
1.Contours
100
AcDbLine
 10
473.9999999999999
 20
8.0
 30
0.0
 11
504.0
 21
8.0
 31
0.0
  0
HATCH
  5
13C
330
1B8
100
AcDbEntity
  8
7.Hachures
100
AcDbHatch
 10
0.0
 20
0.0
 30
0.0
210
0.0
220
0.0
230
1.0
  2
ANSI31
 70
     0
 71
     0
 91
        1
 92
        0
 93
        9
 72
     2
 10
480.5687659609162
 20
189.0784360793289
 40
176.2351806294247
 50
67.00250072977997
 51
87.58331667778172
 73
     0
 72
     1
 10
488.0
 20
13.0
 11
478.9999999999999
 21
13.0
 72
     2
 10
469.0
 20
7.66666666666627
 40
11.33333333333347
 50
28.07248693585485
 51
151.9275130641454
 73
     1
 72
     1
 10
459.0000000000001
 20
12.99999999999996
 11
459.0
 21
11.5
 72
     1
 10
459.0
 20
11.5
 11
474.0
 21
11.5
 72
     1
 10
474.0
 20
11.5
 11
474.0
 21
8.0
 72
     1
 10
474.0
 20
8.0
 11
504.0
 21
8.0
 72
     4
 94
        3
 73
     0
 74
     0
 95
        9
 96
        5
 40
0.0
 40
0.0
 40
0.0
 40
0.0
 40
24.99999999991017
 40
49.59674775231802
 40
49.59674775231802
 40
49.59674775231802
 40
49.59674775231802
 10
504.0000000000001
 20
8.0
 10
512.1377207427016
 20
9.982139280210069
 10
528.2819000603004
 20
13.91444575772493
 10
542.7999803456564
 20
21.99337748993154
 10
550.0
 20
26.0
 97
        0
 72
     2
 10
549.5907876977329
 20
26.34325938585507
 40
0.5341176970521682
 50
320.0090808330261
 51
468.3929390502121
 73
     1
 97
        0
 75
     0
 76
     1
 52
90.0
 41
0.4
 77
     0
 78
     1
 53
135.0
 43
0.0
 44
0.0
 45
-0.8980256121069154
 46
-0.8980256121069152
 79
     0
 98
        0
1001
ACAD
1010
0.0
1020
0.0
1030
0.0
  0
LINE
  5
13D
330
1B8
100
AcDbEntity
  8
1.Contours
100
AcDbLine
 10
377.6
 20
8.0
 30
0.0
 11
473.9999999999999
 21
8.0
 31
0.0
  0
LINE
  5
13E
330
1B8
100
AcDbEntity
  8
1.Contours
100
AcDbLine
 10
367.6
 20
8.0
 30
0.0
 11
377.6
 21
8.0
 31
0.0
  0
LINE
  5
13F
330
1B8
100
AcDbEntity
  8
1.Contours
100
AcDbLine
 10
377.5999999999999
 20
13.0
 30
0.0
 11
367.6
 21
13.0
 31
0.0
  0
LINE
  5
140
330
1B8
100
AcDbEntity
  8
1.Contours
100
AcDbLine
 10
367.6
 20
13.0
 30
0.0
 11
350.599999999997
 21
13.0
 31
0.0
  0
LINE
  5
141
330
1B8
100
AcDbEntity
  8
1.Contours
100
AcDbLine
 10
350.599999999997
 20
13.0
 30
0.0
 11
343.600000000003
 21
13.0
 31
0.0
  0
LINE
  5
142
330
1B8
100
AcDbEntity
  8
1.Contours
100
AcDbLine
 10
350.599999999997
 20
8.0
 30
0.0
 11
367.6
 21
8.0
 31
0.0
  0
LINE
  5
143
330
1B8
100
AcDbEntity
  8
1.Contours
100
AcDbLine
 10
343.600000000003
 20
13.0
 30
0.0
 11
333.3500000000015
 21
13.0
 31
0.0
  0
LINE
  5
144
330
1B8
100
AcDbEntity
  8
1.Contours
100
AcDbLine
 10
343.600000000003
 20
8.0
 30
0.0
 11
350.599999999997
 21
8.0
 31
0.0
  0
LINE
  5
145
330
1B8
100
AcDbEntity
  8
1.Contours
100
AcDbLine
 10
338.3500000000015
 20
8.0
 30
0.0
 11
343.600000000003
 21
8.0
 31
0.0
  0
LINE
  5
146
330
1B8
100
AcDbEntity
  8
1.Contours
100
AcDbLine
 10
333.3500000000015
 20
13.0
 30
0.0
 11
323.3500000000015
 21
13.0
 31
0.0
  0
LINE
  5
147
330
1B8
100
AcDbEntity
  8
1.Contours
100
AcDbLine
 10
323.3500000000015
 20
13.0
 30
0.0
 11
313.1
 21
13.0
 31
0.0
  0
LINE
  5
148
330
1B8
100
AcDbEntity
  8
1.Contours
100
AcDbLine
 10
323.3500000000015
 20
12.0
 30
0.0
 11
323.3500000000015
 21
13.0
 31
0.0
  0
LINE
  5
149
330
1B8
100
AcDbEntity
  8
1.Contours
100
AcDbLine
 10
283.7999999999985
 20
13.0
 30
0.0
 11
276.4000000000015
 21
13.0
 31
0.0
  0
LINE
  5
14A
330
1B8
100
AcDbEntity
  8
1.Contours
100
AcDbLine
 10
283.7999999999985
 20
8.0
 30
0.0
 11
338.3500000000015
 21
8.0
 31
0.0
  0
LINE
  5
14B
330
1B8
100
AcDbEntity
  8
1.Contours
100
AcDbLine
 10
276.4000000000015
 20
13.0
 30
0.0
 11
260.2999999999988
 21
13.0
 31
0.0
  0
LINE
  5
14C
330
1B8
100
AcDbEntity
  8
1.Contours
100
AcDbLine
 10
276.4000000000015
 20
8.0
 30
0.0
 11
283.7999999999985
 21
8.0
 31
0.0
  0
LINE
  5
14D
330
1B8
100
AcDbEntity
  8
1.Contours
100
AcDbLine
 10
260.2999999999988
 20
8.0
 30
0.0
 11
276.4000000000015
 21
8.0
 31
0.0
  0
LINE
  5
14E
330
1B8
100
AcDbEntity
  8
1.Contours
100
AcDbLine
 10
260.2999999999988
 20
13.0
 30
0.0
 11
251.9000000000013
 21
13.0
 31
0.0
  0
LINE
  5
14F
330
1B8
100
AcDbEntity
  8
1.Contours
100
AcDbLine
 10
251.9000000000013
 20
13.0
 30
0.0
 11
170.4
 21
13.0
 31
0.0
  0
LINE
  5
150
330
1B8
100
AcDbEntity
  8
1.Contours
100
AcDbLine
 10
251.9000000000013
 20
8.0
 30
0.0
 11
260.2999999999988
 21
8.0
 31
0.0
  0
HATCH
  5
152
330
1B8
100
AcDbEntity
  8
7.Hachures
100
AcDbHatch
 10
0.0
 20
0.0
 30
0.0
210
0.0
220
0.0
230
1.0
  2
ANSI31
 70
     0
 71
     0
 91
        1
 92
        0
 93
        6
 72
     1
 10
377.6
 20
8.0
 11
377.6
 21
13.0
 72
     1
 10
377.6
 20
13.0
 11
459.0
 21
13.0
 72
     1
 10
459.0
 20
13.0
 11
459.0
 21
11.5
 72
     1
 10
459.0
 20
11.5
 11
474.0
 21
11.5
 72
     1
 10
474.0
 20
11.5
 11
474.0
 21
8.0
 72
     1
 10
474.0
 20
8.0
 11
377.6
 21
8.0
 97
        0
 75
     0
 76
     1
 52
0.0
 41
0.6
 77
     0
 78
     1
 53
45.0
 43
0.0
 44
0.0
 45
-1.347038418160373
 46
1.347038418160373
 79
     0
 98
        0
1001
ACAD
1010
0.0
1020
0.0
1030
0.0
  0
HATCH
  5
153
330
1B8
100
AcDbEntity
  8
7.Hachures
100
AcDbHatch
 10
0.0
 20
0.0
 30
0.0
210
0.0
220
0.0
230
1.0
  2
ANSI31
 70
     0
 71
     0
 91
        1
 92
        0
 93
        6
 72
     1
 10
377.6
 20
8.0
 11
377.6
 21
13.0
 72
     1
 10
377.6
 20
13.0
 11
459.0
 21
13.0
 72
     1
 10
459.0
 20
13.0
 11
459.0
 21
11.5
 72
     1
 10
459.0
 20
11.5
 11
474.0
 21
11.5
 72
     1
 10
474.0
 20
11.5
 11
474.0
 21
8.0
 72
     1
 10
474.0
 20
8.0
 11
377.6
 21
8.0
 97
        0
 75
     0
 76
     1
 52
0.0
 41
0.6
 77
     0
 78
     1
 53
45.0
 43
0.0
 44
0.0
 45
-1.347038418160373
 46
1.347038418160373
 79
     0
 98
        0
1001
ACAD
1010
0.0
1020
0.0
1030
0.0
  0
HATCH
  5
154
330
1B8
100
AcDbEntity
  8
7.Hachures
100
AcDbHatch
 10
0.0
 20
0.0
 30
0.0
210
0.0
220
0.0
230
1.0
  2
ANSI31
 70
     0
 71
     0
 91
        1
 92
        0
 93
        4
 72
     1
 10
367.6
 20
8.0
 11
367.6
 21
13.0
 72
     1
 10
367.6
 20
13.0
 11
350.599999999997
 21
13.0
 72
     1
 10
350.599999999997
 20
13.0
 11
350.599999999997
 21
8.0
 72
     1
 10
350.599999999997
 20
8.0
 11
367.6
 21
8.0
 97
        0
 75
     0
 76
     1
 52
0.0
 41
0.6
 77
     0
 78
     1
 53
45.0
 43
0.0
 44
0.0
 45
-1.347038418160373
 46
1.347038418160373
 79
     0
 98
        0
1001
ACAD
1010
0.0
1020
0.0
1030
0.0
  0
HATCH
  5
155
330
1B8
100
AcDbEntity
  8
7.Hachures
100
AcDbHatch
 10
0.0
 20
0.0
 30
0.0
210
0.0
220
0.0
230
1.0
  2
ANSI31
 70
     0
 71
     0
 91
        1
 92
        0
 93
        8
 72
     1
 10
343.600000000003
 20
13.0
 11
333.3500000000015
 21
13.0
 72
     1
 10
333.3500000000015
 20
13.0
 11
333.3500000000015
 21
12.0
 72
     1
 10
333.3500000000015
 20
12.0
 11
323.3500000000015
 21
12.0
 72
     1
 10
323.3500000000015
 20
12.0
 11
323.3500000000015
 21
10.5
 72
     1
 10
323.3500000000015
 20
10.5
 11
338.3500000000015
 21
10.5
 72
     1
 10
338.3500000000015
 20
10.5
 11
338.3500000000015
 21
8.0
 72
     1
 10
338.3500000000015
 20
8.0
 11
343.600000000003
 21
8.0
 72
     1
 10
343.600000000003
 20
8.0
 11
343.600000000003
 21
13.0
 97
        0
 75
     0
 76
     1
 52
0.0
 41
0.6
 77
     0
 78
     1
 53
45.0
 43
0.0
 44
0.0
 45
-1.347038418160373
 46
1.347038418160373
 79
     0
 98
        0
1001
ACAD
1010
0.0
1020
0.0
1030
0.0
  0
HATCH
  5
156
330
1B8
100
AcDbEntity
  8
7.Hachures
100
AcDbHatch
 10
0.0
 20
0.0
 30
0.0
210
0.0
220
0.0
230
1.0
  2
ANSI31
 70
     0
 71
     0
 91
        1
 92
        0
 93
        4
 72
     1
 10
333.3500000000015
 20
13.0
 11
323.3500000000015
 21
13.0
 72
     1
 10
323.3500000000015
 20
13.0
 11
323.3500000000015
 21
12.0
 72
     1
 10
323.3500000000015
 20
12.0
 11
333.3500000000015
 21
12.0
 72
     1
 10
333.3500000000015
 20
12.0
 11
333.3500000000015
 21
13.0
 97
        0
 75
     0
 76
     1
 52
30.0
 41
0.1
 77
     0
 78
     1
 53
75.0
 43
0.0
 44
0.0
 45
-0.3066814498467791
 46
0.0821750468200504
 79
     0
 98
        0
1001
ACAD
1010
0.0
1020
0.0
1030
0.0
  0
HATCH
  5
157
330
1B8
100
AcDbEntity
  8
7.Hachures
100
AcDbHatch
 10
0.0
 20
0.0
 30
0.0
210
0.0
220
0.0
230
1.0
  2
ANSI31
 70
     0
 71
     0
 91
        1
 92
        0
 93
        8
 72
     1
 10
313.1
 20
13.0
 11
283.7999999999985
 21
13.0
 72
     1
 10
283.7999999999985
 20
13.0
 11
283.7999999999985
 21
8.0
 72
     1
 10
283.7999999999985
 20
8.0
 11
338.3500000000015
 21
8.0
 72
     1
 10
338.3500000000015
 20
8.0
 11
338.3500000000015
 21
10.5
 72
     1
 10
338.3500000000015
 20
10.5
 11
323.3500000000015
 21
10.5
 72
     1
 10
323.3500000000015
 20
10.5
 11
323.3500000000015
 21
12.0
 72
     1
 10
323.3500000000015
 20
12.0
 11
323.3500000000015
 21
13.0
 72
     1
 10
323.3500000000015
 20
13.0
 11
313.1
 21
13.0
 97
        0
 75
     0
 76
     1
 52
90.0
 41
0.6
 77
     0
 78
     1
 53
135.0
 43
0.0
 44
0.0
 45
-1.347038418160373
 46
-1.347038418160373
 79
     0
 98
        0
1001
ACAD
1010
0.0
1020
0.0
1030
0.0
  0
HATCH
  5
158
330
1B8
100
AcDbEntity
  8
7.Hachures
100
AcDbHatch
 10
0.0
 20
0.0
 30
0.0
210
0.0
220
0.0
230
1.0
  2
ANSI31
 70
     0
 71
     0
 91
        1
 92
        0
 93
        4
 72
     1
 10
276.4000000000015
 20
13.0
 11
260.2999999999988
 21
13.0
 72
     1
 10
260.2999999999988
 20
13.0
 11
260.2999999999988
 21
8.0
 72
     1
 10
260.2999999999988
 20
8.0
 11
276.4000000000015
 21
8.0
 72
     1
 10
276.4000000000015
 20
8.0
 11
276.4000000000015
 21
13.0
 97
        0
 75
     0
 76
     1
 52
90.0
 41
0.6
 77
     0
 78
     1
 53
135.0
 43
0.0
 44
0.0
 45
-1.347038418160373
 46
-1.347038418160373
 79
     0
 98
        0
1001
ACAD
1010
0.0
1020
0.0
1030
0.0
  0
HATCH
  5
159
330
1B8
100
AcDbEntity
  8
7.Hachures
100
AcDbHatch
 10
0.0
 20
0.0
 30
0.0
210
0.0
220
0.0
230
1.0
  2
ANSI31
 70
     0
 71
     0
 91
        2
 92
        0
 93
       17
 72
     1
 10
251.9000000000013
 20
13.0
 11
170.4
 21
13.0
 72
     1
 10
170.4
 20
13.0
 11
170.4
 21
14.0
 72
     2
 10
165.4168611667235
 20
53.68839033481065
 40
40.0
 50
82.84358633670341
 51
101.5616099868283
 73
     0
 72
     1
 10
157.3999999999999
 20
14.50000000000001
 11
156.4
 21
14.50000000000001
 72
     2
 10
155.4000000000001
 20
14.50000000000001
 40
0.9999999999999716
 50
0.0
 51
180.0
 73
     1
 72
     1
 10
154.4000000000001
 20
14.50000000000001
 11
153.4000000000001
 21
14.50000000000001
 72
     2
 10
150.5855654600402
 20
19.79895822028072
 40
6.0
 50
62.02589764065937
 51
134.2343070676525
 73
     0
 72
     1
 10
146.4000000000001
 20
15.50000000000002
 11
145.4
 21
15.50000000000001
 72
     2
 10
144.4000000000001
 20
15.50000000000001
 40
0.9999999999999716
 50
0.0
 51
180.0
 73
     1
 72
     1
 10
143.4000000000001
 20
15.50000000000001
 11
142.4000000000001
 21
15.50000000000001
 72
     2
 10
139.8556238344225
 20
17.40749834286707
 40
3.18
 50
36.85860019634287
 51
102.5628849916565
 73
     0
 72
     2
 10
120.4
 20
-64.7500000000043
 40
81.25000000000418
 50
76.6475339767897
 51
104.2500326978029
 73
     1
 72
     1
 10
100.3999999999999
 20
14.0
 11
100.4
 21
11.5
 72
     1
 10
100.4
 20
11.5
 11
117.4
 21
11.5
 72
     1
 10
117.4
 20
11.5
 11
117.4
 21
8.0
 72
     1
 10
117.4
 20
8.0
 11
251.9000000000013
 21
8.0
 72
     1
 10
251.9000000000013
 20
8.0
 11
251.9000000000013
 21
13.0
 97
        0
 92
        0
 93
        2
 72
     1
 10
140.4
 20
14.0
 11
140.4
 21
14.0
 72
     1
 10
140.4
 20
14.0
 11
140.4
 21
14.0
 97
        0
 75
     0
 76
     1
 52
90.0
 41
0.6
 77
     0
 78
     1
 53
135.0
 43
0.0
 44
0.0
 45
-1.347038418160373
 46
-1.347038418160373
 79
     0
 98
        0
1001
ACAD
1010
0.0
1020
0.0
1030
0.0
  0
LINE
  5
15A
330
1B8
100
AcDbEntity
  8
Bec
 62
     6
420
 16711935
100
AcDbLine
 10
59.63904881793667
 20
-10.60325406816137
 30
0.0
 11
29.42474607648175
 21
-8.085395506373477
 31
0.0
  0
LINE
  5
15B
330
1B8
100
AcDbEntity
  8
Bec
100
AcDbLine
 10
59.63904881793667
 20
-10.60325406816137
 30
0.0
 11
42.67000390390033
 21
-9.189166991991701
 31
0.0
  0
LINE
  5
15C
330
1B8
100
AcDbEntity
  8
Bec
100
AcDbLine
 10
117.4
 20
8.0
 30
0.0
 11
117.4
 21
11.5
 31
0.0
  0
MTEXT
  5
15E
330
1B8
100
AcDbEntity
  8
9.Text
100
AcDbMText
 10
52.0
 20
32.0
 30
0.0
 40
1.0
 41
0.0
 46
0.0
 71
     5
 72
     1
  1
\H4;Bec standard de clarinette\PSi b (Yamaha)
  7
textstyle15
 73
     1
 44
1.0
  0
MTEXT
  5
15F
330
1B8
100
AcDbEntity
  8
9.Text
100
AcDbMText
 10
330.0
 20
-20.0
 30
0.0
 40
1.0
 41
0.0
 46
0.0
 71
     5
 72
     1
  1
\H4;Bague \Pcuivre
  7
textstyle16
 73
     1
 44
1.0
  0
LINE
  5
160
330
1B8
100
AcDbEntity
  8
1.Contours
100
AcDbLine
 10
464.1191710197698
 20
-17.89515398934713
 30
0.0
 11
464.1191710197698
 21
0.0
 31
0.0
  0
LINE
  5
161
330
1B8
100
AcDbEntity
  8
1.Contours
100
AcDbLine
 10
469.0
 20
-19.00000000000222
 30
0.0
 11
469.0
 21
0.0
 31
0.0
  0
LINE
  5
162
330
1B8
100
AcDbEntity
  8
1.Contours
100
AcDbLine
 10
473.8808289802302
 20
-17.89515398934713
 30
0.0
 11
473.8808289802302
 21
-0.0000000000000038
 31
0.0
  0
DIMENSION
  5
163
330
1B8
100
AcDbEntity
  8
8.Cotations
100
AcDbDimension
280
     0
  2
*D1
 10
558.8351999999998
 20
-25.99999999999989
 30
0.0
 11
558.8351999999998
 21
0.0000000000000639
 31
0.0
 70
    32
 71
     5
 42
51.99999999999991
 73
     0
 74
     0
 75
     0
  3
QCADDimStyle
100
AcDbAlignedDimension
 13
550.0
 23
26.00000000000002
 33
0.0
 14
550.0
 24
-25.99999999999989
 34
0.0
 50
90.0
100
AcDbRotatedDimension
1001
ACAD
1000
DSTYLE
1002
{
1070
    41
1040
0.18
1070
    44
1040
0.18
1070
    42
1040
0.0625
1070
   147
1040
0.09
1070
    77
1070
     0
1070
    73
1070
     1
1070
   340
1005
0
1070
   140
1040
0.18
1002
}
  0
LINE
  5
164
330
1B8
100
AcDbEntity
  8
6.Epure
100
AcDbLine
 10
550.0
 20
-43.99999999999999
 30
0.0
 11
550.0
 21
-95.99999999999989
 31
0.0
  0
LINE
  5
165
330
1B8
100
AcDbEntity
  8
3.Axes
100
AcDbLine
 10
0.0
 20
-70.0
 30
0.0
 11
600.0
 21
-70.0
 31
0.0
  0
DIMENSION
  5
167
330
1B8
100
AcDbEntity
  8
8.Cotations
100
AcDbDimension
280
     0
  2
*D2
 10
117.4
 20
-60.0
 30
0.0
 11
108.9
 21
-60.0
 31
0.0
 70
    32
 71
     5
 42
17.0
 73
     0
 74
     0
 75
     0
  3
QCADDimStyle
100
AcDbAlignedDimension
 13
100.4
 23
11.5
 33
0.0
 14
117.4
 24
8.0
 34
0.0
100
AcDbRotatedDimension
1001
ACAD
1000
DSTYLE
1002
{
1070
    41
1040
0.18
1070
    44
1040
0.18
1070
    42
1040
0.0625
1070
   147
1040
0.09
1070
    77
1070
     0
1070
    73
1070
     1
1070
   340
1005
0
1070
   140
1040
0.18
1002
}
  0
DIMENSION
  5
168
330
1B8
100
AcDbEntity
  8
8.Cotations
100
AcDbDimension
280
     0
  2
*D3
 10
241.4000000000001
 20
-100.0
 30
0.0
 11
170.9
 21
-100.0
 31
0.0
 70
    32
 71
     5
 42
141.0000000000001
 73
     0
 74
     0
 75
     0
  3
QCADDimStyle
100
AcDbAlignedDimension
 13
100.4
 23
11.5
 33
0.0
 14
241.4000000000001
 24
-38.42071052777717
 34
0.0
100
AcDbRotatedDimension
1001
ACAD
1000
DSTYLE
1002
{
1070
    41
1040
0.18
1070
    44
1040
0.18
1070
    42
1040
0.0625
1070
   147
1040
0.09
1070
    77
1070
     0
1070
    73
1070
     1
1070
   340
1005
0
1070
   140
1040
0.18
1002
}
  0
DIMENSION
  5
169
330
1B8
100
AcDbEntity
  8
8.Cotations
100
AcDbDimension
280
     0
  2
*D4
 10
256.1
 20
-110.0
 30
0.0
 11
178.25
 21
-110.0
 31
0.0
 70
    32
 71
     5
 42
155.7
 73
     0
 74
     0
 75
     0
  3
QCADDimStyle
100
AcDbAlignedDimension
 13
100.4
 23
11.5
 33
0.0
 14
256.1
 24
-45.94539020777718
 34
0.0
100
AcDbRotatedDimension
1001
ACAD
1000
DSTYLE
1002
{
1070
    41
1040
0.18
1070
    44
1040
0.18
1070
    42
1040
0.0625
1070
   147
1040
0.09
1070
    77
1070
     0
1070
    73
1070
     1
1070
   340
1005
0
1070
   140
1040
0.18
1002
}
  0
DIMENSION
  5
16A
330
1B8
100
AcDbEntity
  8
8.Cotations
100
AcDbDimension
280
     0
  2
*D5
 10
280.1
 20
-120.0
 30
0.0
 11
190.25
 21
-120.0
 31
0.0
 70
    32
 71
     5
 42
179.7
 73
     0
 74
     0
 75
     0
  3
QCADDimStyle
100
AcDbAlignedDimension
 13
100.4
 23
-45.1875
 33
0.0
 14
280.1
 24
-52.03679756777717
 34
0.0
100
AcDbRotatedDimension
1001
ACAD
1000
DSTYLE
1002
{
1070
    41
1040
0.18
1070
    44
1040
0.18
1070
    42
1040
0.0625
1070
   147
1040
0.09
1070
    77
1070
     0
1070
    73
1070
     1
1070
   340
1005
0
1070
   140
1040
0.18
1002
}
  0
DIMENSION
  5
16B
330
1B8
100
AcDbEntity
  8
8.Cotations
100
AcDbDimension
280
     0
  2
*D6
 10
313.1
 20
-130.0
 30
0.0
 11
206.7500000000001
 21
-130.0
 31
0.0
 70
    32
 71
     5
 42
212.6999999999999
 73
     0
 74
     0
 75
     0
  3
QCADDimStyle
100
AcDbAlignedDimension
 13
100.4000000000001
 23
0.0
 33
0.0
 14
313.1
 24
-58.12820492777716
 34
0.0
100
AcDbRotatedDimension
1001
ACAD
1000
DSTYLE
1002
{
1070
    41
1040
0.18
1070
    44
1040
0.18
1070
    42
1040
0.0625
1070
   147
1040
0.09
1070
    77
1070
     0
1070
    73
1070
     1
1070
   340
1005
0
1070
   140
1040
0.18
1002
}
  0
DIMENSION
  5
16C
330
1B8
100
AcDbEntity
  8
8.Cotations
100
AcDbDimension
280
     0
  2
*D7
 10
347.1
 20
-140.1740328959999
 30
0.0
 11
223.75
 21
-140.1740328959999
 31
0.0
 70
    32
 71
     5
 42
246.7
 73
     0
 74
     0
 75
     0
  3
QCADDimStyle
100
AcDbAlignedDimension
 13
100.4
 23
-56.69493260777718
 33
0.0
 14
347.1
 24
-66.5
 34
0.0
100
AcDbRotatedDimension
1001
ACAD
1000
DSTYLE
1002
{
1070
    41
1040
0.18
1070
    44
1040
0.18
1070
    42
1040
0.0625
1070
   147
1040
0.09
1070
    77
1070
     0
1070
    73
1070
     1
1070
   340
1005
0
1070
   140
1040
0.18
1002
}
  0
DIMENSION
  5
16D
330
1B8
100
AcDbEntity
  8
8.Cotations
100
AcDbDimension
280
     0
  2
*D8
 10
372.6
 20
-150.0
 30
0.0
 11
236.5
 21
-150.0
 31
0.0
 70
    32
 71
     5
 42
272.2
 73
     0
 74
     0
 75
     0
  3
QCADDimStyle
100
AcDbAlignedDimension
 13
100.4
 23
-13.99999999999999
 33
0.0
 14
372.6
 24
-70.0
 34
0.0
100
AcDbRotatedDimension
1001
ACAD
1000
DSTYLE
1002
{
1070
    41
1040
0.18
1070
    44
1040
0.18
1070
    42
1040
0.0625
1070
   147
1040
0.09
1070
    77
1070
     0
1070
    73
1070
     1
1070
   340
1005
0
1070
   140
1040
0.18
1002
}
  0
DIMENSION
  5
16E
330
1B8
100
AcDbEntity
  8
8.Cotations
100
AcDbDimension
280
     0
  2
*D9
 10
404.0
 20
-160.0
 30
0.0
 11
252.2
 21
-160.0
 31
0.0
 70
    32
 71
     5
 42
303.6
 73
     0
 74
     0
 75
     0
  3
QCADDimStyle
100
AcDbAlignedDimension
 13
100.4
 23
0.0
 33
0.0
 14
404.0
 24
-70.0
 34
0.0
100
AcDbRotatedDimension
1001
ACAD
1000
DSTYLE
1002
{
1070
    41
1040
0.18
1070
    44
1040
0.18
1070
    42
1040
0.0625
1070
   147
1040
0.09
1070
    77
1070
     0
1070
    73
1070
     1
1070
   340
1005
0
1070
   140
1040
0.18
1002
}
  0
DIMENSION
  5
16F
330
1B8
100
AcDbEntity
  8
8.Cotations
100
AcDbDimension
280
     0
  2
*D10
 10
449.0
 20
-170.0
 30
0.0
 11
274.7
 21
-170.0
 31
0.0
 70
    32
 71
     5
 42
348.6
 73
     0
 74
     0
 75
     0
  3
QCADDimStyle
100
AcDbAlignedDimension
 13
100.4
 23
0.0
 33
0.0
 14
449.0
 24
-70.0
 34
0.0
100
AcDbRotatedDimension
1001
ACAD
1000
DSTYLE
1002
{
1070
    41
1040
0.18
1070
    44
1040
0.18
1070
    42
1040
0.0625
1070
   147
1040
0.09
1070
    77
1070
     0
1070
    73
1070
     1
1070
   340
1005
0
1070
   140
1040
0.18
1002
}
  0
DIMENSION
  5
170
330
1B8
100
AcDbEntity
  8
8.Cotations
100
AcDbDimension
280
     0
  2
*D11
 10
473.9999999999999
 20
-180.0
 30
0.0
 11
287.1999999999999
 21
-180.0
 31
0.0
 70
    32
 71
     5
 42
373.5999999999999
 73
     0
 74
     0
 75
     0
  3
QCADDimStyle
100
AcDbAlignedDimension
 13
100.4
 23
14.0
 33
0.0
 14
473.9999999999999
 24
8.0
 34
0.0
100
AcDbRotatedDimension
1001
ACAD
1000
DSTYLE
1002
{
1070
    41
1040
0.18
1070
    44
1040
0.18
1070
    42
1040
0.0625
1070
   147
1040
0.09
1070
    77
1070
     0
1070
    73
1070
     1
1070
   340
1005
0
1070
   140
1040
0.18
1002
}
  0
DIMENSION
  5
171
330
1B8
100
AcDbEntity
  8
8.Cotations
100
AcDbDimension
280
     0
  2
*D12
 10
488.0
 20
-190.0
 30
0.0
 11
294.2
 21
-190.0
 31
0.0
 70
    32
 71
     5
 42
387.5999999999999
 73
     0
 74
     0
 75
     0
  3
QCADDimStyle
100
AcDbAlignedDimension
 13
100.4000000000001
 23
11.5
 33
0.0
 14
488.0
 24
-70.0
 34
0.0
100
AcDbRotatedDimension
1001
ACAD
1000
DSTYLE
1002
{
1070
    41
1040
0.18
1070
    44
1040
0.18
1070
    42
1040
0.0625
1070
   147
1040
0.09
1070
    77
1070
     0
1070
    73
1070
     1
1070
   340
1005
0
1070
   140
1040
0.18
1002
}
  0
DIMENSION
  5
172
330
1B8
100
AcDbEntity
  8
8.Cotations
100
AcDbDimension
280
     0
  2
*D13
 10
550.0
 20
-200.0
 30
0.0
 11
325.2
 21
-200.0
 31
0.0
 70
    32
 71
     5
 42
449.5999999999999
 73
     0
 74
     0
 75
     0
  3
QCADDimStyle
100
AcDbAlignedDimension
 13
100.4000000000001
 23
0.0
 33
0.0
 14
550.0
 24
-70.0
 34
0.0
100
AcDbRotatedDimension
1001
ACAD
1000
DSTYLE
1002
{
1070
    41
1040
0.18
1070
    44
1040
0.18
1070
    42
1040
0.0625
1070
   147
1040
0.09
1070
    77
1070
     0
1070
    73
1070
     1
1070
   340
1005
0
1070
   140
1040
0.18
1002
}
  0
DIMENSION
  5
173
330
1B8
100
AcDbEntity
  8
8.Cotations
100
AcDbDimension
280
     0
  2
*D14
 10
241.4000000000001
 20
-60.00000000000001
 30
0.0
 11
179.4
 21
-60.0
 31
0.0
 70
    33
 71
     5
 42
124.0000000000001
 73
     0
 74
     0
 75
     0
  3
QCADDimStyle
100
AcDbAlignedDimension
 13
117.4
 23
-60.0
 33
0.0
 14
241.4000000000001
 24
-60.00000000000001
 34
0.0
1001
ACAD
1000
DSTYLE
1002
{
1070
    41
1040
0.18
1070
    44
1040
0.18
1070
    42
1040
0.0625
1070
   147
1040
0.09
1070
    77
1070
     0
1070
    73
1070
     1
1070
   340
1005
0
1070
   140
1040
0.18
1002
}
  0
DIMENSION
  5
174
330
1B8
100
AcDbEntity
  8
8.Cotations
100
AcDbDimension
280
     0
  2
*D15
 10
256.1
 20
-60.0
 30
0.0
 11
248.7500000000001
 21
-60.0
 31
0.0
 70
    33
 71
     5
 42
14.69999999999993
 73
     0
 74
     0
 75
     0
  3
QCADDimStyle
100
AcDbAlignedDimension
 13
241.4000000000001
 23
-60.00000000000001
 33
0.0
 14
256.1
 24
-60.0
 34
0.0
1001
ACAD
1000
DSTYLE
1002
{
1070
    41
1040
0.18
1070
    44
1040
0.18
1070
    42
1040
0.0625
1070
   147
1040
0.09
1070
    77
1070
     0
1070
    73
1070
     1
1070
   340
1005
0
1070
   140
1040
0.18
1002
}
  0
DIMENSION
  5
175
330
1B8
100
AcDbEntity
  8
8.Cotations
100
AcDbDimension
280
     0
  2
*D16
 10
280.1
 20
-60.0
 30
0.0
 11
268.1
 21
-60.0
 31
0.0
 70
    33
 71
     5
 42
24.0
 73
     0
 74
     0
 75
     0
  3
QCADDimStyle
100
AcDbAlignedDimension
 13
256.1
 23
-60.00000000000001
 33
0.0
 14
280.1
 24
-60.0
 34
0.0
1001
ACAD
1000
DSTYLE
1002
{
1070
    41
1040
0.18
1070
    44
1040
0.18
1070
    42
1040
0.0625
1070
   147
1040
0.09
1070
    77
1070
     0
1070
    73
1070
     1
1070
   340
1005
0
1070
   140
1040
0.18
1002
}
  0
DIMENSION
  5
176
330
1B8
100
AcDbEntity
  8
8.Cotations
100
AcDbDimension
280
     0
  2
*D17
 10
313.1
 20
-60.0
 30
0.0
 11
296.6
 21
-60.0
 31
0.0
 70
    33
 71
     5
 42
32.99999999999994
 73
     0
 74
     0
 75
     0
  3
QCADDimStyle
100
AcDbAlignedDimension
 13
280.1000000000001
 23
-60.00000000000001
 33
0.0
 14
313.1
 24
-60.0
 34
0.0
1001
ACAD
1000
DSTYLE
1002
{
1070
    41
1040
0.18
1070
    44
1040
0.18
1070
    42
1040
0.0625
1070
   147
1040
0.09
1070
    77
1070
     0
1070
    73
1070
     1
1070
   340
1005
0
1070
   140
1040
0.18
1002
}
  0
DIMENSION
  5
177
330
1B8
100
AcDbEntity
  8
8.Cotations
100
AcDbDimension
280
     0
  2
*D18
 10
347.1
 20
-60.0
 30
0.0
 11
330.1
 21
-60.0
 31
0.0
 70
    33
 71
     5
 42
34.00000000000011
 73
     0
 74
     0
 75
     0
  3
QCADDimStyle
100
AcDbAlignedDimension
 13
313.0999999999999
 23
-59.99999999999999
 33
0.0
 14
347.1
 24
-60.0
 34
0.0
1001
ACAD
1000
DSTYLE
1002
{
1070
    41
1040
0.18
1070
    44
1040
0.18
1070
    42
1040
0.0625
1070
   147
1040
0.09
1070
    77
1070
     0
1070
    73
1070
     1
1070
   340
1005
0
1070
   140
1040
0.18
1002
}
  0
DIMENSION
  5
178
330
1B8
100
AcDbEntity
  8
8.Cotations
100
AcDbDimension
280
     0
  2
*D19
 10
372.6
 20
-60.0
 30
0.0
 11
359.85
 21
-60.0
 31
0.0
 70
    33
 71
     5
 42
25.49999999999994
 73
     0
 74
     0
 75
     0
  3
QCADDimStyle
100
AcDbAlignedDimension
 13
347.1000000000001
 23
-60.00000000000001
 33
0.0
 14
372.6
 24
-60.0
 34
0.0
1001
ACAD
1000
DSTYLE
1002
{
1070
    41
1040
0.18
1070
    44
1040
0.18
1070
    42
1040
0.0625
1070
   147
1040
0.09
1070
    77
1070
     0
1070
    73
1070
     1
1070
   340
1005
0
1070
   140
1040
0.18
1002
}
  0
DIMENSION
  5
179
330
1B8
100
AcDbEntity
  8
8.Cotations
100
AcDbDimension
280
     0
  2
*D20
 10
404.0
 20
-60.0
 30
0.0
 11
388.3
 21
-60.0
 31
0.0
 70
    33
 71
     5
 42
31.39999999999998
 73
     0
 74
     0
 75
     0
  3
QCADDimStyle
100
AcDbAlignedDimension
 13
372.6
 23
-60.00000000000001
 33
0.0
 14
404.0
 24
-60.0
 34
0.0
1001
ACAD
1000
DSTYLE
1002
{
1070
    41
1040
0.18
1070
    44
1040
0.18
1070
    42
1040
0.0625
1070
   147
1040
0.09
1070
    77
1070
     0
1070
    73
1070
     1
1070
   340
1005
0
1070
   140
1040
0.18
1002
}
  0
DIMENSION
  5
17A
330
1B8
100
AcDbEntity
  8
8.Cotations
100
AcDbDimension
280
     0
  2
*D21
 10
449.0
 20
-60.0
 30
0.0
 11
426.5000000000001
 21
-60.0
 31
0.0
 70
    33
 71
     5
 42
44.99999999999989
 73
     0
 74
     0
 75
     0
  3
QCADDimStyle
100
AcDbAlignedDimension
 13
404.0000000000001
 23
-60.00000000000001
 33
0.0
 14
449.0
 24
-60.0
 34
0.0
1001
ACAD
1000
DSTYLE
1002
{
1070
    41
1040
0.18
1070
    44
1040
0.18
1070
    42
1040
0.0625
1070
   147
1040
0.09
1070
    77
1070
     0
1070
    73
1070
     1
1070
   340
1005
0
1070
   140
1040
0.18
1002
}
  0
DIMENSION
  5
17B
330
1B8
100
AcDbEntity
  8
8.Cotations
100
AcDbDimension
280
     0
  2
*D22
 10
473.9999999999999
 20
-60.0
 30
0.0
 11
461.4999999999999
 21
-60.0
 31
0.0
 70
    33
 71
     5
 42
25.0
 73
     0
 74
     0
 75
     0
  3
QCADDimStyle
100
AcDbAlignedDimension
 13
448.9999999999999
 23
-60.00000000000001
 33
0.0
 14
473.9999999999999
 24
-60.0
 34
0.0
1001
ACAD
1000
DSTYLE
1002
{
1070
    41
1040
0.18
1070
    44
1040
0.18
1070
    42
1040
0.0625
1070
   147
1040
0.09
1070
    77
1070
     0
1070
    73
1070
     1
1070
   340
1005
0
1070
   140
1040
0.18
1002
}
  0
DIMENSION
  5
17C
330
1B8
100
AcDbEntity
  8
8.Cotations
100
AcDbDimension
280
     0
  2
*D23
 10
488.0
 20
-60.0
 30
0.0
 11
480.9999999999999
 21
-60.0
 31
0.0
 70
    33
 71
     5
 42
14.00000000000011
 73
     0
 74
     0
 75
     0
  3
QCADDimStyle
100
AcDbAlignedDimension
 13
473.9999999999999
 23
-60.0
 33
0.0
 14
488.0
 24
-60.0
 34
0.0
1001
ACAD
1000
DSTYLE
1002
{
1070
    41
1040
0.18
1070
    44
1040
0.18
1070
    42
1040
0.0625
1070
   147
1040
0.09
1070
    77
1070
     0
1070
    73
1070
     1
1070
   340
1005
0
1070
   140
1040
0.18
1002
}
  0
DIMENSION
  5
17D
330
1B8
100
AcDbEntity
  8
8.Cotations
100
AcDbDimension
280
     0
  2
*D24
 10
504.0
 20
-60.0
 30
0.0
 11
496.0
 21
-60.0
 31
0.0
 70
    32
 71
     5
 42
16.0
 73
     0
 74
     0
 75
     0
  3
QCADDimStyle
100
AcDbAlignedDimension
 13
488.0
 23
-59.99999999999999
 33
0.0
 14
504.0
 24
-70.0
 34
0.0
100
AcDbRotatedDimension
1001
ACAD
1000
DSTYLE
1002
{
1070
    41
1040
0.18
1070
    44
1040
0.18
1070
    42
1040
0.0625
1070
   147
1040
0.09
1070
    77
1070
     0
1070
    73
1070
     1
1070
   340
1005
0
1070
   140
1040
0.18
1002
}
  0
DIMENSION
  5
17E
330
1B8
100
AcDbEntity
  8
8.Cotations
100
AcDbDimension
280
     0
  2
*D25
 10
528.0
 20
-60.0
 30
0.0
 11
516.0
 21
-60.0
 31
0.0
 70
    32
 71
     5
 42
24.0
 73
     0
 74
     0
 75
     0
  3
QCADDimStyle
100
AcDbAlignedDimension
 13
504.0
 23
-60.0
 33
0.0
 14
528.0
 24
-70.0
 34
0.0
100
AcDbRotatedDimension
1001
ACAD
1000
DSTYLE
1002
{
1070
    41
1040
0.18
1070
    44
1040
0.18
1070
    42
1040
0.0625
1070
   147
1040
0.09
1070
    77
1070
     0
1070
    73
1070
     1
1070
   340
1005
0
1070
   140
1040
0.18
1002
}
  0
DIMENSION
  5
17F
330
1B8
100
AcDbEntity
  8
8.Cotations
100
AcDbDimension
280
     0
  2
*D26
 10
550.0
 20
-59.99999999999999
 30
0.0
 11
539.0
 21
-60.0
 31
0.0
 70
    32
 71
     5
 42
22.0
 73
     0
 74
     0
 75
     0
  3
QCADDimStyle
100
AcDbAlignedDimension
 13
528.0
 23
-60.00000000000001
 33
0.0
 14
550.0
 24
-59.99999999999999
 34
0.0
100
AcDbRotatedDimension
1001
ACAD
1000
DSTYLE
1002
{
1070
    41
1040
0.18
1070
    44
1040
0.18
1070
    42
1040
0.0625
1070
   147
1040
0.09
1070
    77
1070
     0
1070
    73
1070
     1
1070
   340
1005
0
1070
   140
1040
0.18
1002
}
  0
DIMENSION
  5
180
330
1B8
100
AcDbEntity
  8
8.Cotations
100
AcDbDimension
280
     0
  2
*D27
 10
490.446900724688
 20
-73.47493551645512
 30
0.0
 11
494.0
 21
-77.0
 31
0.0
 70
   163
 71
     5
 42
8.499999999999991
 73
     0
 74
     0
 75
     0
  3
QCADDimStyle
100
AcDbDiametricDimension
 15
485.553099275312
 25
-66.52506448354488
 35
0.0
 40
0.0
1001
ACAD
1000
DSTYLE
1002
{
1070
    41
1040
0.18
1070
    44
1040
0.18
1070
    42
1040
0.0625
1070
   147
1040
0.09
1070
    77
1070
     0
1070
    73
1070
     1
1070
   340
1005
0
1070
   140
1040
0.18
1002
}
  0
DIMENSION
  5
181
330
1B8
100
AcDbEntity
  8
8.Cotations
100
AcDbDimension
280
     0
  2
*D28
 10
451.0133576618201
 20
-72.98435770737865
 30
0.0
 11
454.0
 21
-76.0
 31
0.0
 70
   163
 71
     5
 42
7.200000000000039
 73
     0
 74
     0
 75
     0
  3
QCADDimStyle
100
AcDbDiametricDimension
 15
446.9866423381799
 25
-67.01564229262135
 35
0.0
 40
0.0
1001
ACAD
1000
DSTYLE
1002
{
1070
    41
1040
0.18
1070
    44
1040
0.18
1070
    42
1040
0.0625
1070
   147
1040
0.09
1070
    77
1070
     0
1070
    73
1070
     1
1070
   340
1005
0
1070
   140
1040
0.18
1002
}
  0
DIMENSION
  5
182
330
1B8
100
AcDbEntity
  8
8.Cotations
100
AcDbDimension
280
     0
  2
*D29
 10
406.4805743873787
 20
-72.74531431874033
 30
0.0
 11
410.2185425936588
 21
-76.0
 31
0.0
 70
   163
 71
     5
 42
7.399999999999942
 73
     0
 74
     0
 75
     0
  3
QCADDimStyle
100
AcDbDiametricDimension
 15
401.5194256126213
 25
-67.25468568125967
 35
0.0
 40
0.0
1001
ACAD
1000
DSTYLE
1002
{
1070
    41
1040
0.18
1070
    44
1040
0.18
1070
    42
1040
0.0625
1070
   147
1040
0.09
1070
    77
1070
     0
1070
    73
1070
     1
1070
   340
1005
0
1070
   140
1040
0.18
1002
}
  0
DIMENSION
  5
183
330
1B8
100
AcDbEntity
  8
8.Cotations
100
AcDbDimension
280
     0
  2
*D30
 10
375.9684488090023
 20
-73.69507139594502
 30
0.0
 11
379.8640982980056
 21
-77.0
 31
0.0
 70
   163
 71
     5
 42
10.00000000000002
 73
     0
 74
     0
 75
     0
  3
QCADDimStyle
100
AcDbDiametricDimension
 15
369.2315511909977
 25
-66.30492860405498
 35
0.0
 40
0.0
1001
ACAD
1000
DSTYLE
1002
{
1070
    41
1040
0.18
1070
    44
1040
0.18
1070
    42
1040
0.0625
1070
   147
1040
0.09
1070
    77
1070
     0
1070
    73
1070
     1
1070
   340
1005
0
1070
   140
1040
0.18
1002
}
  0
DIMENSION
  5
184
330
1B8
100
AcDbEntity
  8
8.Cotations
100
AcDbDimension
280
     0
  2
*D31
 10
348.9652066942625
 20
-72.9615880854161
 30
0.0
 11
351.6759398548363
 21
-76.0
 31
0.0
 70
   163
 71
     5
 42
7.00000000000003
 73
     0
 74
     0
 75
     0
  3
QCADDimStyle
100
AcDbDiametricDimension
 15
345.2347933057376
 25
-67.0384119145839
 35
0.0
 40
0.0
1001
ACAD
1000
DSTYLE
1002
{
1070
    41
1040
0.18
1070
    44
1040
0.18
1070
    42
1040
0.0625
1070
   147
1040
0.09
1070
    77
1070
     0
1070
    73
1070
     1
1070
   340
1005
0
1070
   140
1040
0.18
1002
}
  0
DIMENSION
  5
185
330
1B8
100
AcDbEntity
  8
8.Cotations
100
AcDbDimension
280
     0
  2
*D32
 10
315.6424120097968
 20
-73.15256104975637
 30
0.0
 11
319.5423575850077
 21
-77.0
 31
0.0
 70
   163
 71
     5
 42
8.099999999999971
 73
     0
 74
     0
 75
     0
  3
QCADDimStyle
100
AcDbDiametricDimension
 15
310.5575879902032
 25
-66.84743895024363
 35
0.0
 40
0.0
1001
ACAD
1000
DSTYLE
1002
{
1070
    41
1040
0.18
1070
    44
1040
0.18
1070
    42
1040
0.0625
1070
   147
1040
0.09
1070
    77
1070
     0
1070
    73
1070
     1
1070
   340
1005
0
1070
   140
1040
0.18
1002
}
  0
DIMENSION
  5
186
330
1B8
100
AcDbEntity
  8
8.Cotations
100
AcDbDimension
280
     0
  2
*D33
 10
282.3093735084499
 20
-72.96794014430208
 30
0.0
 11
285.9746615992563
 21
-76.82083479797758
 31
0.0
 70
   163
 71
     5
 42
7.399999999999929
 73
     0
 74
     0
 75
     0
  3
QCADDimStyle
100
AcDbDiametricDimension
 15
277.8906264915502
 25
-67.03205985569792
 35
0.0
 40
0.0
1001
ACAD
1000
DSTYLE
1002
{
1070
    41
1040
0.18
1070
    44
1040
0.18
1070
    42
1040
0.0625
1070
   147
1040
0.09
1070
    77
1070
     0
1070
    73
1070
     1
1070
   340
1005
0
1070
   140
1040
0.18
1002
}
  0
DIMENSION
  5
187
330
1B8
100
AcDbEntity
  8
8.Cotations
100
AcDbDimension
280
     0
  2
*D34
 10
258.5581116610179
 20
-73.40553770526297
 30
0.0
 11
262.6559999999999
 21
-77.82883479797758
 31
0.0
 70
   163
 71
     5
 42
8.399999999999988
 73
     0
 74
     0
 75
     0
  3
QCADDimStyle
100
AcDbDiametricDimension
 15
253.6418883389821
 25
-66.59446229473703
 35
0.0
 40
0.0
1001
ACAD
1000
DSTYLE
1002
{
1070
    41
1040
0.18
1070
    44
1040
0.18
1070
    42
1040
0.0625
1070
   147
1040
0.09
1070
    77
1070
     0
1070
    73
1070
     1
1070
   340
1005
0
1070
   140
1040
0.18
1002
}
  0
DIMENSION
  5
188
330
1B8
100
AcDbEntity
  8
8.Cotations
100
AcDbDimension
280
     0
  2
*D35
 10
243.6729427356921
 20
-72.52858286798453
 30
0.0
 11
248.3283901663426
 21
-76.82083479797758
 31
0.0
 70
   163
 71
     5
 42
6.800000000000019
 73
     0
 74
     0
 75
     0
  3
QCADDimStyle
100
AcDbDiametricDimension
 15
239.127057264308
 25
-67.47141713201547
 35
0.0
 40
0.0
1001
ACAD
1000
DSTYLE
1002
{
1070
    41
1040
0.18
1070
    44
1040
0.18
1070
    42
1040
0.0625
1070
   147
1040
0.09
1070
    77
1070
     0
1070
    73
1070
     1
1070
   340
1005
0
1070
   140
1040
0.18
1002
}
  0
DIMENSION
  5
189
330
1B8
100
AcDbEntity
  8
8.Cotations
100
AcDbDimension
280
     0
  2
*D36
 10
229.6203021345056
 20
44.49092962017195
 30
0.0
 11
221.8586111999999
 21
43.00600893535574
 31
0.0
 70
   163
 71
     5
 42
26.0
 73
     0
 74
     0
 75
     0
  3
QCADDimStyle
100
AcDbDiametricDimension
 15
253.1796978654946
 25
55.48887819209469
 35
0.0
 40
0.0
1001
ACAD
1000
DSTYLE
1002
{
1070
    41
1040
0.18
1070
    44
1040
0.18
1070
    42
1040
0.0625
1070
   147
1040
0.09
1070
    77
1070
     0
1070
    73
1070
     1
1070
   340
1005
0
1070
   140
1040
0.18
1002
}
  0
DIMENSION
  5
18A
330
1B8
100
AcDbEntity
  8
8.Cotations
100
AcDbDimension
280
     0
  2
*D37
 10
320.2639805413792
 20
53.55043515901398
 30
0.0
 11
309.8449199332028
 21
52.97226982948458
 31
0.0
 70
   163
 71
     5
 42
15.99999999999997
 73
     0
 74
     0
 75
     0
  3
QCADDimStyle
100
AcDbDiametricDimension
 15
305.9360194586208
 25
46.42937265325266
 35
0.0
 40
0.0
1001
ACAD
1000
DSTYLE
1002
{
1070
    41
1040
0.18
1070
    44
1040
0.18
1070
    42
1040
0.0625
1070
   147
1040
0.09
1070
    77
1070
     0
1070
    73
1070
     1
1070
   340
1005
0
1070
   140
1040
0.18
1002
}
  0
DIMENSION
  5
18B
330
1B8
100
AcDbEntity
  8
8.Cotations
100
AcDbDimension
280
     0
  2
*D38
 10
338.3500000000015
 20
19.0
 30
0.0
 11
330.8500000000015
 21
19.0
 31
0.0
 70
    32
 71
     5
 42
15.0
 73
     0
 74
     0
 75
     0
  3
QCADDimStyle
100
AcDbAlignedDimension
 13
323.3500000000015
 23
10.5
 33
0.0
 14
338.3500000000015
 24
10.5
 34
0.0
100
AcDbRotatedDimension
1001
ACAD
1000
DSTYLE
1002
{
1070
    41
1040
0.18
1070
    44
1040
0.18
1070
    42
1040
0.0625
1070
   147
1040
0.09
1070
    77
1070
     0
1070
    73
1070
     1
1070
   340
1005
0
1070
   140
1040
0.18
1002
}
  0
DIMENSION
  5
18C
330
1B8
100
AcDbEntity
  8
8.Cotations
100
AcDbDimension
280
     0
  2
*D39
 10
474.0
 20
23.0
 30
0.0
 11
466.5
 21
23.0
 31
0.0
 70
    32
 71
     5
 42
15.0
 73
     0
 74
     0
 75
     0
  3
QCADDimStyle
100
AcDbAlignedDimension
 13
459.0
 23
11.5
 33
0.0
 14
474.0
 24
11.5
 34
0.0
100
AcDbRotatedDimension
1001
ACAD
1000
DSTYLE
1002
{
1070
    41
1040
0.18
1070
    44
1040
0.18
1070
    42
1040
0.0625
1070
   147
1040
0.09
1070
    77
1070
     0
1070
    73
1070
     1
1070
   340
1005
0
1070
   140
1040
0.18
1002
}
  0
MTEXT
  5
18D
330
1B8
100
AcDbEntity
  8
9.Text
100
AcDbMText
 10
234.2778623999998
 20
154.3400243199999
 30
0.0
 40
1.0
 41
0.0
 46
0.0
 71
     5
 72
     1
  1
\c0;\H10;Clarinette Diatonique en SOL maj
  7
textstyle17
 73
     1
 44
1.0
  0
MTEXT
  5
18E
330
1B8
100
AcDbEntity
  8
9.Text
100
AcDbMText
 10
230.0
 20
120.0
 30
0.0
 40
1.0
 41
0.0
 46
0.0
 71
     5
 72
     1
  1
\c0;\H6;Auteur : Cristophe Mineau\P\fArial|b0|i1|c0|p0;www.labellenote.fr\P\fArial|b0|i0|c0|p0;Licence : Creative Commons \fArial|b0|i1|c0|p0;Creative Commons BY-NC-SA\P
  7
textstyle18
 73
     1
 44
1.0
  0
MTEXT
  5
18F
330
1B8
100
AcDbEntity
  8
8.Cotations
100
AcDbMText
 10
380.0
 20
120.0
 30
0.0
 40
1.0
 41
0.0
 46
0.0
 71
     4
 72
     1
  3
\c0;\H5;Tables des doigtés :\Px | xxx xxx | x  : FA#\Px | xxx xxx | O  : SOL\Px | xxx xxxO| O  : LA\Px | xxx xOO | O  : SI\Px | xxx OOO | O  : DO\Px | xxO OOO| O  : RE\Px | xOO OOO| O  : MI\Px | OXO OOO| O  : FA\Px | OOO OOO| O  : FA#\PO | OXO OOO| O
  1
  : SOL\P
  7
textstyle19
 73
     1
 44
1.0
  0
LINE
  5
192
330
1B8
100
AcDbEntity
  8
Bec
100
AcDbLine
 10
59.63904881793667
 20
-10.60325406816137
 30
0.0
 11
100.4
 21
-13.99999999999999
 31
0.0
  0
LINE
  5
193
330
1B8
100
AcDbEntity
  8
Bec
100
AcDbLine
 10
57.41537716234807
 20
6.004727404905061
 30
0.0
 11
45.0
 21
0.0
 31
0.0
  0
ARC
  5
194
330
1B8
100
AcDbEntity
  8
Bec
100
AcDbCircle
 10
66.12340742613681
 20
-12.0
 30
0.0
 40
20.0
100
AcDbArc
 50
90.00000000000004
 51
115.8108455356197
  0
LINE
  5
195
330
1B8
100
AcDbEntity
  8
3.Axes
100
AcDbLine
 10
41.73333333333333
 20
0.0
 30
0.0
 11
45.0
 21
0.0
 31
0.0
  0
LINE
  5
197
330
1B8
100
AcDbEntity
  8
Bec
100
AcDbLine
 10
41.73333333333334
 20
0.0000000000000036
 30
0.0
 11
58.40000000000001
 21
10.00000000000001
 31
0.0
  0
HATCH
  5
198
330
1B8
100
AcDbEntity
  8
7.Hachures
100
AcDbHatch
 10
0.0
 20
0.0
 30
0.0
210
0.0
220
0.0
230
1.0
  2
ANSI31
 70
     0
 71
     0
 91
        1
 92
        0
 93
        9
 72
     1
 10
117.4
 20
8.0
 11
66.1234074261368
 21
8.0
 72
     2
 10
66.12340742613681
 20
-12.0
 40
20.0
 50
90.00000000000004
 51
115.8108455356197
 73
     1
 72
     1
 10
57.41537716234805
 20
6.004727404905051
 11
45.0
 21
0.0
 72
     1
 10
45.0
 20
0.0
 11
41.73333333333333
 21
0.0
 72
     1
 10
41.73333333333333
 20
0.0
 11
58.40000000000001
 21
10.00000000000001
 72
     1
 10
58.40000000000001
 20
10.00000000000001
 11
100.4
 21
14.00000000000002
 72
     1
 10
100.4
 20
14.00000000000002
 11
100.4
 21
11.5
 72
     1
 10
100.4
 20
11.5
 11
117.4
 21
11.5
 72
     1
 10
117.4
 20
11.5
 11
117.4
 21
8.0
 97
        0
 75
     0
 76
     1
 52
0.0
 41
0.2
 77
     0
 78
     1
 53
45.0
 43
0.0
 44
0.0
 45
-0.4490128060534576
 46
0.4490128060534577
 79
     0
 98
        0
1001
ACAD
1010
0.0
1020
0.0
1030
0.0
  0
LINE
  5
199
330
1B8
100
AcDbEntity
  8
Bec
100
AcDbLine
 10
89.96374271715308
 20
-13.13031189309608
 30
0.0
 11
89.96374271715308
 21
-0.5834367709192625
 31
0.0
  0
ENDSEC
  0
SECTION
  2
OBJECTS
  0
DICTIONARY
  5
1A6
330
0
100
AcDbDictionary
281
     1
  3
ACAD_DETAILVIEWSTYLE
350
443
  3
ACAD_GROUP
350
1A7
  3
ACAD_LAYOUT
350
1B3
  3
ACAD_MATERIAL
350
1DC
  3
ACAD_MLEADERSTYLE
350
442
  3
ACAD_MLINESTYLE
350
1B0
  3
ACAD_PLOTSETTINGS
350
1B2
  3
ACAD_PLOTSTYLENAME
350
1A8
  3
ACAD_SCALELIST
350
1E0
  3
ACAD_SECTIONVIEWSTYLE
350
444
  3
ACAD_TABLESTYLE
350
441
  3
ACAD_VISUALSTYLE
350
1C3
  3
AcDbVariableDictionary
350
43F
  3
QCAD_OBJECTS
350
204
  0
SUN
  5
202
330
1C2
100
AcDbSun
 90
        1
290
     0
 63
     7
421
 16777215
 40
1.0
291
     1
 91
  2455826
 92
 54000000
292
     0
 70
     2
 71
   256
280
     1
  0
DICTIONARY
  5
443
102
{ACAD_REACTORS
330
1A6
102
}
330
1A6
100
AcDbDictionary
281
     1
  0
DICTIONARY
  5
1A7
102
{ACAD_REACTORS
330
1A6
102
}
330
1A6
100
AcDbDictionary
281
     1
  0
DICTIONARY
  5
1B3
102
{ACAD_REACTORS
330
1A6
102
}
330
1A6
100
AcDbDictionary
281
     1
  3
Layout1
350
1B7
  3
Layout2
350
1BF
  3
Model
350
1BB
  0
DICTIONARY
  5
1DC
102
{ACAD_REACTORS
330
1A6
102
}
330
1A6
100
AcDbDictionary
281
     1
  3
ByBlock
350
1DE
  3
ByLayer
350
1DD
  3
Global
350
1DF
  0
DICTIONARY
  5
442
102
{ACAD_REACTORS
330
1A6
102
}
330
1A6
100
AcDbDictionary
281
     1
  0
DICTIONARY
  5
1B0
102
{ACAD_REACTORS
330
1A6
102
}
330
1A6
100
AcDbDictionary
281
     1
  3
Standard
350
1B1
  0
DICTIONARY
  5
1B2
102
{ACAD_REACTORS
330
1A6
102
}
330
1A6
100
AcDbDictionary
281
     1
  0
ACDBDICTIONARYWDFLT
  5
1A8
102
{ACAD_REACTORS
330
1A6
102
}
330
1A6
100
AcDbDictionary
281
     1
  3
Normal
350
1A9
100
AcDbDictionaryWithDefault
340
1A9
  0
DICTIONARY
  5
1E0
102
{ACAD_REACTORS
330
1A6
102
}
330
1A6
100
AcDbDictionary
281
     1
  3
A0
350
1E1
  3
A1
350
1E2
  3
A2
350
1E3
  3
A3
350
1E4
  3
A4
350
1E5
  3
A5
350
1E6
  3
A6
350
1E7
  3
A7
350
1E8
  3
A8
350
1E9
  3
A9
350
1EA
  3
B0
350
1EB
  3
B1
350
1EC
  3
B2
350
1ED
  3
B3
350
1EE
  3
B4
350
1EF
  3
B5
350
1F0
  3
B6
350
1F1
  3
B7
350
1F2
  3
B8
350
1F3
  3
B9
350
1F4
  3
C0
350
1F5
  3
C1
350
1F6
  3
C2
350
1F7
  3
C3
350
1F8
  3
C4
350
1F9
  3
C5
350
1FA
  3
C6
350
1FB
  3
C7
350
1FC
  3
C8
350
1FD
  3
C9
350
1FE
  3
D0
350
1FF
  3
D1
350
200
  3
D2
350
201
  0
DICTIONARY
  5
444
102
{ACAD_REACTORS
330
1A6
102
}
330
1A6
100
AcDbDictionary
281
     1
  0
DICTIONARY
  5
441
102
{ACAD_REACTORS
330
1A6
102
}
330
1A6
100
AcDbDictionary
281
     1
  0
DICTIONARY
  5
1C3
102
{ACAD_REACTORS
330
1A6
102
}
330
1A6
100
AcDbDictionary
281
     1
  3
2dWireframe
350
1C8
  3
Basic
350
1CB
  3
Brighten
350
1CF
  3
ColorChange
350
1D3
  3
Conceptual
350
1CD
  3
Dim
350
1CE
  3
EdgeColorOff
350
1D6
  3
Facepattern
350
1D2
  3
Flat
350
1C4
  3
FlatWithEdges
350
1C5
  3
Gouraud
350
1C6
  3
GouraudWithEdges
350
1C7
  3
Hidden
350
1CA
  3
JitterOff
350
1D4
  3
Linepattern
350
1D1
  3
OverhangOff
350
1D5
  3
Realistic
350
1CC
  3
Shaded
350
1DB
  3
Shaded with edges
350
1DA
  3
Shades of Gray
350
1D7
  3
Sketchy
350
1D8
  3
Thicken
350
1D0
  3
Wireframe
350
1C9
  3
X-Ray
350
1D9
  0
DICTIONARY
  5
43F
102
{ACAD_REACTORS
330
1A6
102
}
330
1A6
100
AcDbDictionary
281
     1
  3
CANNOSCALE
350
440
  0
DICTIONARY
  5
204
102
{ACAD_REACTORS
330
1A6
102
}
330
1A6
100
AcDbDictionary
281
     1
  3
ColorSettings/ColorMode
350
205
  3
DimensionSettings/AngularFormat
350
206
  3
DimensionSettings/AngularPrecision
350
207
  3
DimensionSettings/KeepProportions
350
208
  3
DimensionSettings/LinearFormat
350
209
  3
DimensionSettings/LinearPrecision
350
20A
  3
Grid/DisplayGrid
350
20B
  3
Grid/DisplayGrid00
350
20C
  3
Grid/DisplayGrid01
350
20D
  3
Grid/DisplayGrid02
350
20E
  3
Grid/DisplayGrid03
350
20F
  3
Grid/GridSpacingX
350
210
  3
Grid/GridSpacingX00
350
211
  3
Grid/GridSpacingX01
350
212
  3
Grid/GridSpacingX02
350
213
  3
Grid/GridSpacingX03
350
214
  3
Grid/GridSpacingY
350
215
  3
Grid/GridSpacingY00
350
216
  3
Grid/GridSpacingY01
350
217
  3
Grid/GridSpacingY02
350
218
  3
Grid/GridSpacingY03
350
219
  3
Grid/IsometricGrid00
350
21A
  3
Grid/IsometricGrid01
350
21B
  3
Grid/IsometricGrid02
350
21C
  3
Grid/IsometricGrid03
350
21D
  3
Grid/IsometricProjection00
350
21E
  3
Grid/IsometricProjection01
350
21F
  3
Grid/IsometricProjection02
350
220
  3
Grid/IsometricProjection03
350
221
  3
Grid/MetaGridSpacingX
350
222
  3
Grid/MetaGridSpacingX00
350
223
  3
Grid/MetaGridSpacingX01
350
224
  3
Grid/MetaGridSpacingX02
350
225
  3
Grid/MetaGridSpacingX03
350
226
  3
Grid/MetaGridSpacingY
350
227
  3
Grid/MetaGridSpacingY00
350
228
  3
Grid/MetaGridSpacingY01
350
229
  3
Grid/MetaGridSpacingY02
350
22A
  3
Grid/MetaGridSpacingY03
350
22B
  3
MultiPageSettings/Columns
350
22C
  3
MultiPageSettings/GlueMarginBottom
350
22D
  3
MultiPageSettings/GlueMarginsBottom
350
22E
  3
MultiPageSettings/GlueMarginsLeft
350
22F
  3
MultiPageSettings/GlueMarginsRight
350
230
  3
MultiPageSettings/GlueMarginsTop
350
231
  3
MultiPageSettings/PrintCropMarks
350
232
  3
MultiPageSettings/Rows
350
233
  3
PageSettings/OffsetX
350
234
  3
PageSettings/OffsetY
350
235
  3
PageSettings/PageOrientation
350
236
  3
PageSettings/PaperHeight
350
237
  3
PageSettings/PaperWidth
350
238
  3
PageSettings/Scale
350
239
  3
PageSettings/ShowBoundingBox
350
23A
  3
PageSettings/ShowPageBorders
350
23B
  3
PageSettings/ShowPaperBorders
350
23C
  3
UnitSettings/PaperUnit
350
23D
  0
LAYOUT
  5
1B7
102
{ACAD_REACTORS
330
1B3
102
}
330
1B3
100
AcDbPlotSettings
  1

  2
none_device
  4

  6

 40
0.0
 41
0.0
 42
0.0
 43
0.0
 44
0.0
 45
0.0
 46
0.0
 47
0.0
 48
0.0
 49
0.0
140
0.0
141
0.0
142
1.0
143
1.0
 70
   688
 72
     0
 73
     0
 74
     5
  7

 75
    16
 76
     0
 77
     2
 78
   300
147
1.0
148
0.0
149
0.0
100
AcDbLayout
  1
Layout1
 70
     1
 71
     1
 10
0.0
 20
0.0
 11
12.0
 21
9.0
 12
0.0
 22
0.0
 32
0.0
 14
1.000000000000000E+20
 24
1.000000000000000E+20
 34
1.000000000000000E+20
 15
-1.000000000000000E+20
 25
-1.000000000000000E+20
 35
-1.000000000000000E+20
146
0.0
 13
0.0
 23
0.0
 33
0.0
 16
1.0
 26
0.0
 36
0.0
 17
0.0
 27
1.0
 37
0.0
 76
     0
330
1B4
  0
LAYOUT
  5
1BF
102
{ACAD_REACTORS
330
1B3
102
}
330
1B3
100
AcDbPlotSettings
  1

  2
none_device
  4

  6

 40
0.0
 41
0.0
 42
0.0
 43
0.0
 44
0.0
 45
0.0
 46
0.0
 47
0.0
 48
0.0
 49
0.0
140
0.0
141
0.0
142
1.0
143
1.0
 70
   688
 72
     0
 73
     0
 74
     5
  7

 75
    16
 76
     0
 77
     2
 78
   300
147
1.0
148
0.0
149
0.0
100
AcDbLayout
  1
Layout2
 70
     1
 71
     2
 10
0.0
 20
0.0
 11
0.0
 21
0.0
 12
0.0
 22
0.0
 32
0.0
 14
0.0
 24
0.0
 34
0.0
 15
0.0
 25
0.0
 35
0.0
146
0.0
 13
0.0
 23
0.0
 33
0.0
 16
1.0
 26
0.0
 36
0.0
 17
0.0
 27
1.0
 37
0.0
 76
     0
330
1BC
  0
LAYOUT
  5
1BB
102
{ACAD_REACTORS
330
1B3
102
}
330
1B3
100
AcDbPlotSettings
  1

  2
none_device
  4
Letter_(8.50_x_11.00_Inches)
  6

 40
6.35
 41
6.35
 42
6.35000508
 43
6.35000508
 44
215.9
 45
279.4
 46
0.0
 47
0.0
 48
0.0
 49
0.0
140
0.0
141
0.0
142
1.0
143
1.0
 70
  1712
 72
     0
 73
     0
 74
     0
  7

 75
     0
 76
     0
 77
     2
 78
   300
147
1.0
148
0.0
149
0.0
100
AcDbLayout
  1
Model
 70
     1
 71
     0
 10
0.0
 20
0.0
 11
12.0
 21
9.0
 12
0.0
 22
0.0
 32
0.0
 14
1.000000000000000E+20
 24
1.000000000000000E+20
 34
1.000000000000000E+20
 15
-1.000000000000000E+20
 25
-1.000000000000000E+20
 35
-1.000000000000000E+20
146
0.0
 13
0.0
 23
0.0
 33
0.0
 16
1.0
 26
0.0
 36
0.0
 17
0.0
 27
1.0
 37
0.0
 76
     0
330
1B8
331
1C2
  0
MATERIAL
  5
1DE
102
{ACAD_REACTORS
330
1DC
102
}
330
1DC
100
AcDbMaterial
  1
ByBlock
 72
     1
 94
      127
  0
MATERIAL
  5
1DD
102
{ACAD_REACTORS
330
1DC
102
}
330
1DC
100
AcDbMaterial
  1
ByLayer
 72
     1
 94
      127
  0
MATERIAL
  5
1DF
102
{ACAD_REACTORS
330
1DC
102
}
330
1DC
100
AcDbMaterial
  1
Global
 72
     1
 94
      127
  0
MLINESTYLE
  5
1B1
102
{ACAD_REACTORS
330
1B0
102
}
330
1B0
100
AcDbMlineStyle
  2
Standard
 70
     0
  3

 62
   256
 51
90.0
 52
90.0
 71
     2
 49
0.5
 62
   256
  6
BYLAYER
 49
-0.5
 62
   256
  6
BYLAYER
  0
ACDBPLACEHOLDER
  5
1A9
102
{ACAD_REACTORS
330
1A8
102
}
330
1A8
  0
SCALE
  5
1E1
102
{ACAD_REACTORS
330
1E0
102
}
330
1E0
100
AcDbScale
 70
     0
300
1:1
140
1.0
141
1.0
290
     1
  0
SCALE
  5
1E2
102
{ACAD_REACTORS
330
1E0
102
}
330
1E0
100
AcDbScale
 70
     0
300
1:2
140
1.0
141
2.0
290
     0
  0
SCALE
  5
1E3
102
{ACAD_REACTORS
330
1E0
102
}
330
1E0
100
AcDbScale
 70
     0
300
1:4
140
1.0
141
4.0
290
     0
  0
SCALE
  5
1E4
102
{ACAD_REACTORS
330
1E0
102
}
330
1E0
100
AcDbScale
 70
     0
300
1:5
140
1.0
141
5.0
290
     0
  0
SCALE
  5
1E5
102
{ACAD_REACTORS
330
1E0
102
}
330
1E0
100
AcDbScale
 70
     0
300
1:8
140
1.0
141
8.0
290
     0
  0
SCALE
  5
1E6
102
{ACAD_REACTORS
330
1E0
102
}
330
1E0
100
AcDbScale
 70
     0
300
1:10
140
1.0
141
10.0
290
     0
  0
SCALE
  5
1E7
102
{ACAD_REACTORS
330
1E0
102
}
330
1E0
100
AcDbScale
 70
     0
300
1:16
140
1.0
141
16.0
290
     0
  0
SCALE
  5
1E8
102
{ACAD_REACTORS
330
1E0
102
}
330
1E0
100
AcDbScale
 70
     0
300
1:20
140
1.0
141
20.0
290
     0
  0
SCALE
  5
1E9
102
{ACAD_REACTORS
330
1E0
102
}
330
1E0
100
AcDbScale
 70
     0
300
1:30
140
1.0
141
30.0
290
     0
  0
SCALE
  5
1EA
102
{ACAD_REACTORS
330
1E0
102
}
330
1E0
100
AcDbScale
 70
     0
300
1:40
140
1.0
141
40.0
290
     0
  0
SCALE
  5
1EB
102
{ACAD_REACTORS
330
1E0
102
}
330
1E0
100
AcDbScale
 70
     0
300
1:50
140
1.0
141
50.0
290
     0
  0
SCALE
  5
1EC
102
{ACAD_REACTORS
330
1E0
102
}
330
1E0
100
AcDbScale
 70
     0
300
1:100
140
1.0
141
100.0
290
     0
  0
SCALE
  5
1ED
102
{ACAD_REACTORS
330
1E0
102
}
330
1E0
100
AcDbScale
 70
     0
300
2:1
140
2.0
141
1.0
290
     0
  0
SCALE
  5
1EE
102
{ACAD_REACTORS
330
1E0
102
}
330
1E0
100
AcDbScale
 70
     0
300
4:1
140
4.0
141
1.0
290
     0
  0
SCALE
  5
1EF
102
{ACAD_REACTORS
330
1E0
102
}
330
1E0
100
AcDbScale
 70
     0
300
8:1
140
8.0
141
1.0
290
     0
  0
SCALE
  5
1F0
102
{ACAD_REACTORS
330
1E0
102
}
330
1E0
100
AcDbScale
 70
     0
300
10:1
140
10.0
141
1.0
290
     0
  0
SCALE
  5
1F1
102
{ACAD_REACTORS
330
1E0
102
}
330
1E0
100
AcDbScale
 70
     0
300
100:1
140
100.0
141
1.0
290
     0
  0
SCALE
  5
1F2
102
{ACAD_REACTORS
330
1E0
102
}
330
1E0
100
AcDbScale
 70
     0
300
1/128" = 1'-0"
140
0.0078125
141
12.0
290
     0
  0
SCALE
  5
1F3
102
{ACAD_REACTORS
330
1E0
102
}
330
1E0
100
AcDbScale
 70
     0
300
1/64" = 1'-0"
140
0.015625
141
12.0
290
     0
  0
SCALE
  5
1F4
102
{ACAD_REACTORS
330
1E0
102
}
330
1E0
100
AcDbScale
 70
     0
300
1/32" = 1'-0"
140
0.03125
141
12.0
290
     0
  0
SCALE
  5
1F5
102
{ACAD_REACTORS
330
1E0
102
}
330
1E0
100
AcDbScale
 70
     0
300
1/16" = 1'-0"
140
0.0625
141
12.0
290
     0
  0
SCALE
  5
1F6
102
{ACAD_REACTORS
330
1E0
102
}
330
1E0
100
AcDbScale
 70
     0
300
3/32" = 1'-0"
140
0.09375
141
12.0
290
     0
  0
SCALE
  5
1F7
102
{ACAD_REACTORS
330
1E0
102
}
330
1E0
100
AcDbScale
 70
     0
300
1/8" = 1'-0"
140
0.125
141
12.0
290
     0
  0
SCALE
  5
1F8
102
{ACAD_REACTORS
330
1E0
102
}
330
1E0
100
AcDbScale
 70
     0
300
3/16" = 1'-0"
140
0.1875
141
12.0
290
     0
  0
SCALE
  5
1F9
102
{ACAD_REACTORS
330
1E0
102
}
330
1E0
100
AcDbScale
 70
     0
300
1/4" = 1'-0"
140
0.25
141
12.0
290
     0
  0
SCALE
  5
1FA
102
{ACAD_REACTORS
330
1E0
102
}
330
1E0
100
AcDbScale
 70
     0
300
3/8" = 1'-0"
140
0.375
141
12.0
290
     0
  0
SCALE
  5
1FB
102
{ACAD_REACTORS
330
1E0
102
}
330
1E0
100
AcDbScale
 70
     0
300
1/2" = 1'-0"
140
0.5
141
12.0
290
     0
  0
SCALE
  5
1FC
102
{ACAD_REACTORS
330
1E0
102
}
330
1E0
100
AcDbScale
 70
     0
300
3/4" = 1'-0"
140
0.75
141
12.0
290
     0
  0
SCALE
  5
1FD
102
{ACAD_REACTORS
330
1E0
102
}
330
1E0
100
AcDbScale
 70
     0
300
1" = 1'-0"
140
1.0
141
12.0
290
     0
  0
SCALE
  5
1FE
102
{ACAD_REACTORS
330
1E0
102
}
330
1E0
100
AcDbScale
 70
     0
300
1-1/2" = 1'-0"
140
1.5
141
12.0
290
     0
  0
SCALE
  5
1FF
102
{ACAD_REACTORS
330
1E0
102
}
330
1E0
100
AcDbScale
 70
     0
300
3" = 1'-0"
140
3.0
141
12.0
290
     0
  0
SCALE
  5
200
102
{ACAD_REACTORS
330
1E0
102
}
330
1E0
100
AcDbScale
 70
     0
300
6" = 1'-0"
140
6.0
141
12.0
290
     0
  0
SCALE
  5
201
102
{ACAD_REACTORS
330
1E0
102
}
330
1E0
100
AcDbScale
 70
     0
300
1'-0" = 1'-0"
140
12.0
141
12.0
290
     0
  0
VISUALSTYLE
  5
1C8
102
{ACAD_REACTORS
330
1C3
102
}
330
1C3
100
AcDbVisualStyle
  2
2dWireframe
 70
     4
177
     3
291
     0
 70
    58
 90
        0
176
     1
 90
        2
176
     1
 90
        0
176
     1
 90
        0
176
     1
 40
0.6
176
     1
 40
30.0
176
     1
 62
     7
420
 16777215
176
     1
 90
        1
176
     1
 90
        4
176
     1
 62
     7
176
     1
 62
   257
176
     1
 90
        1
176
     1
 90
        1
176
     1
 40
1.0
176
     1
 90
        0
176
     1
 62
   257
176
     1
 40
1.0
176
     1
 90
        1
176
     1
 90
        6
176
     1
 90
        2
176
     1
 62
     7
176
     1
 90
        5
176
     1
 90
        0
176
     1
 90
        0
176
     1
290
     0
176
     1
 90
        1
176
     1
 40
0.0
176
     1
 90
        0
176
     1
290
     1
176
     1
290
     1
176
     1
290
     0
176
     1
290
     0
176
     1
290
     0
176
     1
290
     0
176
     1
290
     0
176
     1
290
     0
176
     1
290
     0
176
     1
 90
       50
176
     1
 40
0.0
176
     1
 40
1.0
176
     1
 90
        0
176
     1
 62
    18
420
        0
176
     1
 90
       50
176
     1
 90
        3
176
     1
 62
     5
420
      255
176
     1
290
     0
176
     1
 90
       50
176
     1
 90
       50
176
     1
 90
       50
176
     1
290
     0
176
     1
 90
       50
176
     1
 62
   256
176
     0
 40
1.0
176
     0
 90
        2
176
     1
  1
strokes_ogs.tif
176
     1
290
     0
176
     1
 40
1.0
176
     1
 40
1.0
176
     1
  0
VISUALSTYLE
  5
1CB
102
{ACAD_REACTORS
330
1C3
102
}
330
1C3
100
AcDbVisualStyle
  2
Basic
 70
     7
177
     3
291
     1
 70
    58
 90
        1
176
     1
 90
        0
176
     1
 90
        1
176
     1
 90
        0
176
     1
 40
0.6
176
     1
 40
30.0
176
     1
 62
     7
420
 16777215
176
     1
 90
        0
176
     1
 90
        4
176
     1
 62
     7
176
     1
 62
   257
176
     1
 90
        1
176
     1
 90
        1
176
     1
 40
1.0
176
     1
 90
        8
176
     1
 62
     7
176
     1
 40
1.0
176
     1
 90
        1
176
     1
 90
        6
176
     1
 90
        2
176
     1
 62
     7
176
     1
 90
        5
176
     1
 90
        0
176
     1
 90
        0
176
     1
290
     0
176
     1
 90
        1
176
     1
 40
0.0
176
     1
 90
        0
176
     1
290
     0
176
     1
290
     1
176
     1
290
     1
176
     1
290
     0
176
     1
290
     0
176
     1
290
     0
176
     1
290
     0
176
     1
290
     0
176
     1
290
     0
176
     1
 90
       50
176
     1
 40
0.0
176
     1
 40
1.0
176
     1
 90
        0
176
     1
 62
    18
420
        0
176
     1
 90
       50
176
     1
 90
        3
176
     1
 62
     5
420
      255
176
     1
290
     0
176
     1
 90
       50
176
     1
 90
       50
176
     1
 90
       50
176
     1
290
     0
176
     1
 90
       50
176
     1
 62
   256
176
     0
 40
1.0
176
     0
 90
        2
176
     1
  1
strokes_ogs.tif
176
     1
290
     0
176
     1
 40
1.0
176
     1
 40
1.0
176
     1
  0
VISUALSTYLE
  5
1CF
102
{ACAD_REACTORS
330
1C3
102
}
330
1C3
100
AcDbVisualStyle
  2
Brighten
 70
    12
177
     3
291
     1
 70
    58
 90
        2
176
     1
 90
        2
176
     1
 90
        0
176
     1
 90
        0
176
     1
 40
0.6
176
     1
 40
30.0
176
     1
 62
     7
420
 16777215
176
     1
 90
        1
176
     1
 90
        4
176
     1
 62
     7
176
     1
 62
   257
176
     1
 90
        1
176
     1
 90
        1
176
     1
 40
1.0
176
     1
 90
        8
176
     1
 62
     7
176
     1
 40
1.0
176
     1
 90
        1
176
     1
 90
        6
176
     1
 90
        2
176
     1
 62
     7
176
     1
 90
        5
176
     1
 90
        0
176
     1
 90
        0
176
     1
290
     0
176
     1
 90
        1
176
     1
 40
50.0
176
     1
 90
        0
176
     1
290
     0
176
     1
290
     1
176
     1
290
     1
176
     1
290
     0
176
     1
290
     0
176
     1
290
     0
176
     1
290
     0
176
     1
290
     0
176
     1
290
     0
176
     1
 90
       50
176
     1
 40
0.0
176
     1
 40
1.0
176
     1
 90
        0
176
     1
 62
    18
420
        0
176
     1
 90
       50
176
     1
 90
        3
176
     1
 62
     5
420
      255
176
     1
290
     0
176
     1
 90
       50
176
     1
 90
       50
176
     1
 90
       50
176
     1
290
     0
176
     1
 90
       50
176
     1
 62
   256
176
     0
 40
1.0
176
     0
 90
        2
176
     1
  1
strokes_ogs.tif
176
     1
290
     0
176
     1
 40
1.0
176
     1
 40
1.0
176
     1
  0
VISUALSTYLE
  5
1D3
102
{ACAD_REACTORS
330
1C3
102
}
330
1C3
100
AcDbVisualStyle
  2
ColorChange
 70
    16
177
     3
291
     1
 70
    58
 90
        2
176
     1
 90
        2
176
     1
 90
        3
176
     1
 90
        0
176
     1
 40
0.6
176
     1
 40
30.0
176
     1
 62
     8
420
  8421504
176
     1
 90
        1
176
     1
 90
        4
176
     1
 62
     7
176
     1
 62
   257
176
     1
 90
        1
176
     1
 90
        1
176
     1
 40
1.0
176
     1
 90
        8
176
     1
 62
     8
420
  8421504
176
     1
 40
1.0
176
     1
 90
        1
176
     1
 90
        6
176
     1
 90
        2
176
     1
 62
     7
176
     1
 90
        5
176
     1
 90
        0
176
     1
 90
        0
176
     1
290
     0
176
     1
 90
        1
176
     1
 40
0.0
176
     1
 90
        0
176
     1
290
     0
176
     1
290
     1
176
     1
290
     1
176
     1
290
     0
176
     1
290
     0
176
     1
290
     0
176
     1
290
     0
176
     1
290
     0
176
     1
290
     0
176
     1
 90
       50
176
     1
 40
0.0
176
     1
 40
1.0
176
     1
 90
        0
176
     1
 62
    18
420
        0
176
     1
 90
       50
176
     1
 90
        3
176
     1
 62
     5
420
      255
176
     1
290
     0
176
     1
 90
       50
176
     1
 90
       50
176
     1
 90
       50
176
     1
290
     0
176
     1
 90
       50
176
     1
 62
   256
176
     0
 40
1.0
176
     0
 90
        2
176
     1
  1
strokes_ogs.tif
176
     1
290
     0
176
     1
 40
1.0
176
     1
 40
1.0
176
     1
  0
VISUALSTYLE
  5
1CD
102
{ACAD_REACTORS
330
1C3
102
}
330
1C3
100
AcDbVisualStyle
  2
Conceptual
 70
     9
177
     3
291
     0
 70
    58
 90
        3
176
     1
 90
        2
176
     1
 90
        0
176
     1
 90
        0
176
     1
 40
0.6
176
     1
 40
30.0
176
     1
 62
     7
420
 16777215
176
     1
 90
        2
176
     1
 90
        2
176
     1
 62
     7
176
     1
 62
   257
176
     1
 90
        1
176
     1
 90
        1
176
     1
 40
179.0
176
     1
 90
        8
176
     1
 62
     7
176
     1
 40
1.0
176
     1
 90
        1
176
     1
 90
        6
176
     1
 90
        2
176
     1
 62
     7
176
     1
 90
        3
176
     1
 90
        0
176
     1
 90
        0
176
     1
290
     0
176
     1
 90
        1
176
     1
 40
0.0
176
     1
 90
        0
176
     1
290
     0
176
     1
290
     1
176
     1
290
     1
176
     1
290
     0
176
     1
290
     0
176
     1
290
     0
176
     1
290
     0
176
     1
290
     0
176
     1
290
     0
176
     1
 90
       50
176
     1
 40
0.0
176
     1
 40
1.0
176
     1
 90
        0
176
     1
 62
    18
420
        0
176
     1
 90
       50
176
     1
 90
        3
176
     1
 62
     5
420
      255
176
     1
290
     0
176
     1
 90
       50
176
     1
 90
       50
176
     1
 90
       50
176
     1
290
     0
176
     1
 90
       50
176
     1
 62
   256
176
     0
 40
1.0
176
     0
 90
        2
176
     1
  1
strokes_ogs.tif
176
     1
290
     0
176
     1
 40
1.0
176
     1
 40
1.0
176
     1
  0
VISUALSTYLE
  5
1CE
102
{ACAD_REACTORS
330
1C3
102
}
330
1C3
100
AcDbVisualStyle
  2
Dim
 70
    11
177
     3
291
     1
 70
    58
 90
        2
176
     1
 90
        2
176
     1
 90
        0
176
     1
 90
        0
176
     1
 40
0.6
176
     1
 40
30.0
176
     1
 62
     7
420
 16777215
176
     1
 90
        1
176
     1
 90
        4
176
     1
 62
     7
176
     1
 62
   257
176
     1
 90
        1
176
     1
 90
        1
176
     1
 40
1.0
176
     1
 90
        8
176
     1
 62
     7
176
     1
 40
1.0
176
     1
 90
        1
176
     1
 90
        6
176
     1
 90
        2
176
     1
 62
     7
176
     1
 90
        5
176
     1
 90
        0
176
     1
 90
        0
176
     1
290
     0
176
     1
 90
        1
176
     1
 40
-50.0
176
     1
 90
        0
176
     1
290
     0
176
     1
290
     1
176
     1
290
     1
176
     1
290
     0
176
     1
290
     0
176
     1
290
     0
176
     1
290
     0
176
     1
290
     0
176
     1
290
     0
176
     1
 90
       50
176
     1
 40
0.0
176
     1
 40
1.0
176
     1
 90
        0
176
     1
 62
    18
420
        0
176
     1
 90
       50
176
     1
 90
        3
176
     1
 62
     5
420
      255
176
     1
290
     0
176
     1
 90
       50
176
     1
 90
       50
176
     1
 90
       50
176
     1
290
     0
176
     1
 90
       50
176
     1
 62
   256
176
     0
 40
1.0
176
     0
 90
        2
176
     1
  1
strokes_ogs.tif
176
     1
290
     0
176
     1
 40
1.0
176
     1
 40
1.0
176
     1
  0
VISUALSTYLE
  5
1D6
102
{ACAD_REACTORS
330
1C3
102
}
330
1C3
100
AcDbVisualStyle
  2
EdgeColorOff
 70
    22
177
     3
291
     1
 70
    58
 90
        2
176
     0
 90
        2
176
     0
 90
        0
176
     0
 90
        0
176
     0
 40
0.6
176
     0
 40
30.0
176
     0
 62
     7
420
 16777215
176
     0
 90
        1
176
     0
 90
        4
176
     0
 62
     7
176
     0
 62
   257
176
     0
 90
        1
176
     0
 90
        1
176
     0
 40
1.0
176
     0
 90
        8
176
     2
 62
     7
176
     0
 40
1.0
176
     0
 90
        1
176
     0
 90
        6
176
     0
 90
        2
176
     0
 62
     7
176
     0
 90
        5
176
     0
 90
        0
176
     0
 90
        0
176
     0
290
     0
176
     0
 90
        1
176
     0
 40
0.0
176
     0
 90
        0
176
     0
290
     0
176
     0
290
     1
176
     0
290
     1
176
     0
290
     0
176
     0
290
     0
176
     0
290
     0
176
     0
290
     0
176
     0
290
     0
176
     0
290
     0
176
     0
 90
       50
176
     0
 40
0.0
176
     0
 40
1.0
176
     0
 90
        0
176
     0
 62
    18
420
        0
176
     0
 90
       50
176
     0
 90
        3
176
     0
 62
     5
420
      255
176
     0
290
     0
176
     0
 90
       50
176
     0
 90
       50
176
     0
 90
       50
176
     0
290
     0
176
     0
 90
       50
176
     0
 62
   256
176
     0
 40
1.0
176
     0
 90
        2
176
     0
  1
strokes_ogs.tif
176
     0
290
     0
176
     0
 40
1.0
176
     0
 40
1.0
176
     0
  0
VISUALSTYLE
  5
1D2
102
{ACAD_REACTORS
330
1C3
102
}
330
1C3
100
AcDbVisualStyle
  2
Facepattern
 70
    15
177
     3
291
     1
 70
    58
 90
        2
176
     1
 90
        2
176
     1
 90
        0
176
     1
 90
        0
176
     1
 40
0.6
176
     1
 40
30.0
176
     1
 62
     7
420
 16777215
176
     1
 90
        1
176
     1
 90
        4
176
     1
 62
     7
176
     1
 62
   257
176
     1
 90
        1
176
     1
 90
        1
176
     1
 40
1.0
176
     1
 90
        8
176
     1
 62
     7
176
     1
 40
1.0
176
     1
 90
        1
176
     1
 90
        6
176
     1
 90
        2
176
     1
 62
     7
176
     1
 90
        5
176
     1
 90
        0
176
     1
 90
        0
176
     1
290
     0
176
     1
 90
        1
176
     1
 40
0.0
176
     1
 90
        0
176
     1
290
     0
176
     1
290
     1
176
     1
290
     1
176
     1
290
     0
176
     1
290
     0
176
     1
290
     0
176
     1
290
     0
176
     1
290
     0
176
     1
290
     0
176
     1
 90
       50
176
     1
 40
0.0
176
     1
 40
1.0
176
     1
 90
        0
176
     1
 62
    18
420
        0
176
     1
 90
       50
176
     1
 90
        3
176
     1
 62
     5
420
      255
176
     1
290
     0
176
     1
 90
       50
176
     1
 90
       50
176
     1
 90
       50
176
     1
290
     0
176
     1
 90
       50
176
     1
 62
   256
176
     0
 40
1.0
176
     0
 90
        2
176
     1
  1
strokes_ogs.tif
176
     1
290
     0
176
     1
 40
1.0
176
     1
 40
1.0
176
     1
  0
VISUALSTYLE
  5
1C4
102
{ACAD_REACTORS
330
1C3
102
}
330
1C3
100
AcDbVisualStyle
  2
Flat
 70
     0
177
     3
291
     1
 70
    58
 90
        2
176
     1
 90
        1
176
     1
 90
        1
176
     1
 90
        2
176
     1
 40
0.6
176
     1
 40
30.0
176
     1
 62
     7
420
 16777215
176
     1
 90
        0
176
     1
 90
        0
176
     1
 62
     7
176
     1
 62
   257
176
     1
 90
        1
176
     1
 90
        1
176
     1
 40
1.0
176
     1
 90
        8
176
     1
 62
     7
176
     1
 40
1.0
176
     1
 90
        1
176
     1
 90
        6
176
     1
 90
        2
176
     1
 62
     7
176
     1
 90
        5
176
     1
 90
        0
176
     1
 90
        0
176
     1
290
     0
176
     1
 90
       13
176
     1
 40
0.0
176
     1
 90
        0
176
     1
290
     0
176
     1
290
     1
176
     1
290
     1
176
     1
290
     0
176
     1
290
     0
176
     1
290
     0
176
     1
290
     0
176
     1
290
     0
176
     1
290
     0
176
     1
 90
       50
176
     1
 40
0.0
176
     1
 40
1.0
176
     1
 90
        0
176
     1
 62
    18
420
        0
176
     1
 90
       50
176
     1
 90
        3
176
     1
 62
     5
420
      255
176
     1
290
     0
176
     1
 90
       50
176
     1
 90
       50
176
     1
 90
       50
176
     1
290
     0
176
     1
 90
       50
176
     1
 62
   256
176
     0
 40
1.0
176
     0
 90
        2
176
     1
  1
strokes_ogs.tif
176
     1
290
     0
176
     1
 40
1.0
176
     1
 40
1.0
176
     1
  0
VISUALSTYLE
  5
1C5
102
{ACAD_REACTORS
330
1C3
102
}
330
1C3
100
AcDbVisualStyle
  2
FlatWithEdges
 70
     1
177
     3
291
     1
 70
    58
 90
        2
176
     1
 90
        1
176
     1
 90
        1
176
     1
 90
        2
176
     1
 40
0.6
176
     1
 40
30.0
176
     1
 62
     7
420
 16777215
176
     1
 90
        1
176
     1
 90
        0
176
     1
 62
     7
176
     1
 62
   257
176
     1
 90
        1
176
     1
 90
        1
176
     1
 40
1.0
176
     1
 90
        0
176
     1
 62
   257
176
     1
 40
1.0
176
     1
 90
        1
176
     1
 90
        6
176
     1
 90
        2
176
     1
 62
     7
176
     1
 90
        5
176
     1
 90
        0
176
     1
 90
        0
176
     1
290
     0
176
     1
 90
       13
176
     1
 40
0.0
176
     1
 90
        0
176
     1
290
     0
176
     1
290
     1
176
     1
290
     1
176
     1
290
     0
176
     1
290
     0
176
     1
290
     0
176
     1
290
     0
176
     1
290
     0
176
     1
290
     0
176
     1
 90
       50
176
     1
 40
0.0
176
     1
 40
1.0
176
     1
 90
        0
176
     1
 62
    18
420
        0
176
     1
 90
       50
176
     1
 90
        3
176
     1
 62
     5
420
      255
176
     1
290
     0
176
     1
 90
       50
176
     1
 90
       50
176
     1
 90
       50
176
     1
290
     0
176
     1
 90
       50
176
     1
 62
   256
176
     0
 40
1.0
176
     0
 90
        2
176
     1
  1
strokes_ogs.tif
176
     1
290
     0
176
     1
 40
1.0
176
     1
 40
1.0
176
     1
  0
VISUALSTYLE
  5
1C6
102
{ACAD_REACTORS
330
1C3
102
}
330
1C3
100
AcDbVisualStyle
  2
Gouraud
 70
     2
177
     3
291
     1
 70
    58
 90
        2
176
     1
 90
        2
176
     1
 90
        1
176
     1
 90
        2
176
     1
 40
0.6
176
     1
 40
30.0
176
     1
 62
     7
420
 16777215
176
     1
 90
        0
176
     1
 90
        0
176
     1
 62
     7
176
     1
 62
   257
176
     1
 90
        1
176
     1
 90
        1
176
     1
 40
1.0
176
     1
 90
        0
176
     1
 62
     7
176
     1
 40
1.0
176
     1
 90
        1
176
     1
 90
        6
176
     1
 90
        2
176
     1
 62
     7
176
     1
 90
        5
176
     1
 90
        0
176
     1
 90
        0
176
     1
290
     0
176
     1
 90
       13
176
     1
 40
0.0
176
     1
 90
        0
176
     1
290
     0
176
     1
290
     1
176
     1
290
     1
176
     1
290
     0
176
     1
290
     0
176
     1
290
     0
176
     1
290
     0
176
     1
290
     0
176
     1
290
     0
176
     1
 90
       50
176
     1
 40
0.0
176
     1
 40
1.0
176
     1
 90
        0
176
     1
 62
    18
420
        0
176
     1
 90
       50
176
     1
 90
        3
176
     1
 62
     5
420
      255
176
     1
290
     0
176
     1
 90
       50
176
     1
 90
       50
176
     1
 90
       50
176
     1
290
     0
176
     1
 90
       50
176
     1
 62
   256
176
     0
 40
1.0
176
     0
 90
        2
176
     1
  1
strokes_ogs.tif
176
     1
290
     0
176
     1
 40
1.0
176
     1
 40
1.0
176
     1
  0
VISUALSTYLE
  5
1C7
102
{ACAD_REACTORS
330
1C3
102
}
330
1C3
100
AcDbVisualStyle
  2
GouraudWithEdges
 70
     3
177
     3
291
     1
 70
    58
 90
        2
176
     1
 90
        2
176
     1
 90
        1
176
     1
 90
        2
176
     1
 40
0.6
176
     1
 40
30.0
176
     1
 62
     7
420
 16777215
176
     1
 90
        1
176
     1
 90
        0
176
     1
 62
     7
176
     1
 62
   257
176
     1
 90
        1
176
     1
 90
        1
176
     1
 40
1.0
176
     1
 90
        0
176
     1
 62
   257
176
     1
 40
1.0
176
     1
 90
        1
176
     1
 90
        6
176
     1
 90
        2
176
     1
 62
     7
176
     1
 90
        5
176
     1
 90
        0
176
     1
 90
        0
176
     1
290
     0
176
     1
 90
       13
176
     1
 40
0.0
176
     1
 90
        0
176
     1
290
     0
176
     1
290
     1
176
     1
290
     1
176
     1
290
     0
176
     1
290
     0
176
     1
290
     0
176
     1
290
     0
176
     1
290
     0
176
     1
290
     0
176
     1
 90
       50
176
     1
 40
0.0
176
     1
 40
1.0
176
     1
 90
        0
176
     1
 62
    18
420
        0
176
     1
 90
       50
176
     1
 90
        3
176
     1
 62
     5
420
      255
176
     1
290
     0
176
     1
 90
       50
176
     1
 90
       50
176
     1
 90
       50
176
     1
290
     0
176
     1
 90
       50
176
     1
 62
   256
176
     0
 40
1.0
176
     0
 90
        2
176
     1
  1
strokes_ogs.tif
176
     1
290
     0
176
     1
 40
1.0
176
     1
 40
1.0
176
     1
  0
VISUALSTYLE
  5
1CA
102
{ACAD_REACTORS
330
1C3
102
}
330
1C3
100
AcDbVisualStyle
  2
Hidden
 70
     6
177
     3
291
     0
 70
    58
 90
        1
176
     1
 90
        2
176
     1
 90
        2
176
     1
 90
        0
176
     1
 40
0.6
176
     1
 40
30.0
176
     1
 62
     7
420
 16777215
176
     1
 90
        2
176
     1
 90
        2
176
     1
 62
     7
176
     1
 62
   257
176
     1
 90
        2
176
     1
 90
        1
176
     1
 40
40.0
176
     1
 90
        0
176
     1
 62
   257
176
     1
 40
1.0
176
     1
 90
        1
176
     1
 90
        6
176
     1
 90
        2
176
     1
 62
     7
176
     1
 90
        3
176
     1
 90
        0
176
     1
 90
        0
176
     1
290
     0
176
     1
 90
        1
176
     1
 40
0.0
176
     1
 90
        0
176
     1
290
     0
176
     1
290
     1
176
     1
290
     1
176
     1
290
     0
176
     1
290
     0
176
     1
290
     0
176
     1
290
     0
176
     1
290
     0
176
     1
290
     0
176
     1
 90
       50
176
     1
 40
0.0
176
     1
 40
1.0
176
     1
 90
        0
176
     1
 62
    18
420
        0
176
     1
 90
       50
176
     1
 90
        3
176
     1
 62
     5
420
      255
176
     1
290
     0
176
     1
 90
       50
176
     1
 90
       50
176
     1
 90
       50
176
     1
290
     0
176
     1
 90
       50
176
     1
 62
   256
176
     0
 40
1.0
176
     0
 90
        2
176
     1
  1
strokes_ogs.tif
176
     1
290
     0
176
     1
 40
1.0
176
     1
 40
1.0
176
     1
  0
VISUALSTYLE
  5
1D4
102
{ACAD_REACTORS
330
1C3
102
}
330
1C3
100
AcDbVisualStyle
  2
JitterOff
 70
    20
177
     3
291
     1
 70
    58
 90
        2
176
     0
 90
        2
176
     0
 90
        0
176
     0
 90
        0
176
     0
 40
0.6
176
     0
 40
30.0
176
     0
 62
     7
420
 16777215
176
     0
 90
        1
176
     0
 90
        4
176
     0
 62
     7
176
     0
 62
   257
176
     0
 90
        1
176
     0
 90
        1
176
     0
 40
1.0
176
     0
 90
       10
176
     2
 62
     7
176
     0
 40
1.0
176
     0
 90
        1
176
     0
 90
        6
176
     0
 90
        2
176
     0
 62
     7
176
     0
 90
        5
176
     0
 90
        0
176
     0
 90
        0
176
     0
290
     0
176
     0
 90
        1
176
     0
 40
0.0
176
     0
 90
        0
176
     0
290
     0
176
     0
290
     1
176
     0
290
     1
176
     0
290
     0
176
     0
290
     0
176
     0
290
     0
176
     0
290
     0
176
     0
290
     0
176
     0
290
     0
176
     0
 90
       50
176
     0
 40
0.0
176
     0
 40
1.0
176
     0
 90
        0
176
     0
 62
    18
420
        0
176
     0
 90
       50
176
     0
 90
        3
176
     0
 62
     5
420
      255
176
     0
290
     0
176
     0
 90
       50
176
     0
 90
       50
176
     0
 90
       50
176
     0
290
     0
176
     0
 90
       50
176
     0
 62
   256
176
     0
 40
1.0
176
     0
 90
        2
176
     0
  1
strokes_ogs.tif
176
     0
290
     0
176
     0
 40
1.0
176
     0
 40
1.0
176
     0
  0
VISUALSTYLE
  5
1D1
102
{ACAD_REACTORS
330
1C3
102
}
330
1C3
100
AcDbVisualStyle
  2
Linepattern
 70
    14
177
     3
291
     1
 70
    58
 90
        2
176
     1
 90
        2
176
     1
 90
        0
176
     1
 90
        0
176
     1
 40
0.6
176
     1
 40
30.0
176
     1
 62
     7
420
 16777215
176
     1
 90
        1
176
     1
 90
        4
176
     1
 62
     7
176
     1
 62
   257
176
     1
 90
        7
176
     1
 90
        7
176
     1
 40
1.0
176
     1
 90
        8
176
     1
 62
     7
176
     1
 40
1.0
176
     1
 90
        1
176
     1
 90
        6
176
     1
 90
        2
176
     1
 62
     7
176
     1
 90
        5
176
     1
 90
        0
176
     1
 90
        0
176
     1
290
     0
176
     1
 90
        1
176
     1
 40
0.0
176
     1
 90
        0
176
     1
290
     0
176
     1
290
     1
176
     1
290
     1
176
     1
290
     0
176
     1
290
     0
176
     1
290
     0
176
     1
290
     0
176
     1
290
     0
176
     1
290
     0
176
     1
 90
       50
176
     1
 40
0.0
176
     1
 40
1.0
176
     1
 90
        0
176
     1
 62
    18
420
        0
176
     1
 90
       50
176
     1
 90
        3
176
     1
 62
     5
420
      255
176
     1
290
     0
176
     1
 90
       50
176
     1
 90
       50
176
     1
 90
       50
176
     1
290
     0
176
     1
 90
       50
176
     1
 62
   256
176
     0
 40
1.0
176
     0
 90
        2
176
     1
  1
strokes_ogs.tif
176
     1
290
     0
176
     1
 40
1.0
176
     1
 40
1.0
176
     1
  0
VISUALSTYLE
  5
1D5
102
{ACAD_REACTORS
330
1C3
102
}
330
1C3
100
AcDbVisualStyle
  2
OverhangOff
 70
    21
177
     3
291
     1
 70
    58
 90
        2
176
     0
 90
        2
176
     0
 90
        0
176
     0
 90
        0
176
     0
 40
0.6
176
     0
 40
30.0
176
     0
 62
     7
420
 16777215
176
     0
 90
        1
176
     0
 90
        4
176
     0
 62
     7
176
     0
 62
   257
176
     0
 90
        1
176
     0
 90
        1
176
     0
 40
1.0
176
     0
 90
        9
176
     2
 62
     7
176
     0
 40
1.0
176
     0
 90
        1
176
     0
 90
        6
176
     0
 90
        2
176
     0
 62
     7
176
     0
 90
        5
176
     0
 90
        0
176
     0
 90
        0
176
     0
290
     0
176
     0
 90
        1
176
     0
 40
0.0
176
     0
 90
        0
176
     0
290
     0
176
     0
290
     1
176
     0
290
     1
176
     0
290
     0
176
     0
290
     0
176
     0
290
     0
176
     0
290
     0
176
     0
290
     0
176
     0
290
     0
176
     0
 90
       50
176
     0
 40
0.0
176
     0
 40
1.0
176
     0
 90
        0
176
     0
 62
    18
420
        0
176
     0
 90
       50
176
     0
 90
        3
176
     0
 62
     5
420
      255
176
     0
290
     0
176
     0
 90
       50
176
     0
 90
       50
176
     0
 90
       50
176
     0
290
     0
176
     0
 90
       50
176
     0
 62
   256
176
     0
 40
1.0
176
     0
 90
        2
176
     0
  1
strokes_ogs.tif
176
     0
290
     0
176
     0
 40
1.0
176
     0
 40
1.0
176
     0
  0
VISUALSTYLE
  5
1CC
102
{ACAD_REACTORS
330
1C3
102
}
330
1C3
100
AcDbVisualStyle
  2
Realistic
 70
     8
177
     3
291
     0
 70
    58
 90
        2
176
     1
 90
        3
176
     1
 90
        0
176
     1
 90
        2
176
     1
 40
0.6
176
     1
 40
30.0
176
     1
 62
     7
420
 16777215
176
     1
 90
        0
176
     1
 90
        0
176
     1
 62
     7
176
     1
 62
   257
176
     1
 90
        1
176
     1
 90
        1
176
     1
 40
1.0
176
     1
 90
        8
176
     1
 62
   257
176
     1
 40
1.0
176
     1
 90
        1
176
     1
 90
        6
176
     1
 90
        2
176
     1
 62
     7
176
     1
 90
        3
176
     1
 90
        0
176
     1
 90
        0
176
     1
290
     0
176
     1
 90
       13
176
     1
 40
0.0
176
     1
 90
        0
176
     1
290
     0
176
     1
290
     1
176
     1
290
     1
176
     1
290
     0
176
     1
290
     0
176
     1
290
     0
176
     1
290
     0
176
     1
290
     0
176
     1
290
     0
176
     1
 90
       50
176
     1
 40
0.0
176
     1
 40
1.0
176
     1
 90
        0
176
     1
 62
    18
420
        0
176
     1
 90
       50
176
     1
 90
        3
176
     1
 62
     5
420
      255
176
     1
290
     0
176
     1
 90
       50
176
     1
 90
       50
176
     1
 90
       50
176
     1
290
     0
176
     1
 90
       50
176
     1
 62
   256
176
     0
 40
1.0
176
     0
 90
        2
176
     1
  1
strokes_ogs.tif
176
     1
290
     0
176
     1
 40
1.0
176
     1
 40
1.0
176
     1
  0
VISUALSTYLE
  5
1DB
102
{ACAD_REACTORS
330
1C3
102
}
330
1C3
100
AcDbVisualStyle
  2
Shaded
 70
    27
177
     3
291
     0
 70
    58
 90
        2
176
     1
 90
        2
176
     1
 90
        1
176
     1
 90
        2
176
     1
 40
0.6
176
     1
 40
30.0
176
     1
 62
     7
420
 16777215
176
     1
 90
        0
176
     1
 90
        4
176
     1
 62
     7
176
     1
 62
   257
176
     1
 90
        1
176
     1
 90
        1
176
     1
 40
1.0
176
     1
 90
        8
176
     1
 62
   257
176
     1
 40
1.0
176
     1
 90
        1
176
     1
 90
        6
176
     1
 90
        2
176
     1
 62
     8
420
  7895160
176
     1
 90
        3
176
     1
 90
        0
176
     1
 90
        0
176
     1
290
     0
176
     1
 90
        5
176
     1
 40
0.0
176
     1
 90
        0
176
     1
290
     0
176
     1
290
     1
176
     1
290
     1
176
     1
290
     0
176
     1
290
     0
176
     1
290
     0
176
     1
290
     0
176
     1
290
     0
176
     1
290
     0
176
     1
 90
       50
176
     1
 40
0.0
176
     1
 40
1.0
176
     1
 90
        0
176
     1
 62
    18
420
        0
176
     1
 90
       50
176
     1
 90
        3
176
     1
 62
     5
420
      255
176
     1
290
     0
176
     1
 90
       50
176
     1
 90
       50
176
     1
 90
       50
176
     1
290
     0
176
     1
 90
       50
176
     1
 62
   256
176
     0
 40
1.0
176
     0
 90
        2
176
     1
  1
strokes_ogs.tif
176
     1
290
     0
176
     1
 40
1.0
176
     1
 40
1.0
176
     1
  0
VISUALSTYLE
  5
1DA
102
{ACAD_REACTORS
330
1C3
102
}
330
1C3
100
AcDbVisualStyle
  2
Shaded with edges
 70
    26
177
     3
291
     0
 70
    58
 90
        2
176
     1
 90
        2
176
     1
 90
        1
176
     1
 90
        2
176
     1
 40
0.6
176
     1
 40
30.0
176
     1
 62
     7
420
 16777215
176
     1
 90
        1
176
     1
 90
       10
176
     1
 62
     7
176
     1
 62
   257
176
     1
 90
        2
176
     1
 90
        1
176
     1
 40
1.0
176
     1
 90
        8
176
     1
 62
   257
176
     1
 40
1.0
176
     1
 90
        1
176
     1
 90
        6
176
     1
 90
        2
176
     1
 62
     7
176
     1
 90
        3
176
     1
 90
        0
176
     1
 90
        0
176
     1
290
     0
176
     1
 90
        5
176
     1
 40
0.0
176
     1
 90
        0
176
     1
290
     0
176
     1
290
     1
176
     1
290
     1
176
     1
290
     0
176
     1
290
     0
176
     1
290
     0
176
     1
290
     0
176
     1
290
     0
176
     1
290
     0
176
     1
 90
       50
176
     1
 40
0.0
176
     1
 40
1.0
176
     1
 90
        0
176
     1
 62
    18
420
        0
176
     1
 90
       50
176
     1
 90
        3
176
     1
 62
     5
420
      255
176
     1
290
     0
176
     1
 90
       50
176
     1
 90
       50
176
     1
 90
       50
176
     1
290
     0
176
     1
 90
       50
176
     1
 62
   256
176
     0
 40
1.0
176
     0
 90
        2
176
     1
  1
strokes_ogs.tif
176
     1
290
     0
176
     1
 40
1.0
176
     1
 40
1.0
176
     1
  0
VISUALSTYLE
  5
1D7
102
{ACAD_REACTORS
330
1C3
102
}
330
1C3
100
AcDbVisualStyle
  2
Shades of Gray
 70
    23
177
     3
291
     0
 70
    58
 90
        2
176
     1
 90
        2
176
     1
 90
        3
176
     1
 90
        0
176
     1
 40
0.6
176
     1
 40
30.0
176
     1
 62
     7
420
 16777215
176
     1
 90
        2
176
     1
 90
        2
176
     1
 62
     7
176
     1
 62
     7
176
     1
 90
        1
176
     1
 90
        1
176
     1
 40
40.0
176
     1
 90
        8
176
     1
 62
     7
176
     1
 40
1.0
176
     1
 90
        1
176
     1
 90
        6
176
     1
 90
        2
176
     1
 62
     7
176
     1
 90
        3
176
     1
 90
        0
176
     1
 90
        0
176
     1
290
     0
176
     1
 90
        1
176
     1
 40
0.0
176
     1
 90
        0
176
     1
290
     0
176
     1
290
     1
176
     1
290
     1
176
     1
290
     0
176
     1
290
     0
176
     1
290
     0
176
     1
290
     0
176
     1
290
     0
176
     1
290
     0
176
     1
 90
       50
176
     1
 40
0.0
176
     1
 40
1.0
176
     1
 90
        0
176
     1
 62
    18
420
        0
176
     1
 90
       50
176
     1
 90
        3
176
     1
 62
     5
420
      255
176
     1
290
     0
176
     1
 90
       50
176
     1
 90
       50
176
     1
 90
       50
176
     1
290
     0
176
     1
 90
       50
176
     1
 62
   256
176
     0
 40
1.0
176
     0
 90
        2
176
     1
  1
strokes_ogs.tif
176
     1
290
     0
176
     1
 40
1.0
176
     1
 40
1.0
176
     1
  0
VISUALSTYLE
  5
1D8
102
{ACAD_REACTORS
330
1C3
102
}
330
1C3
100
AcDbVisualStyle
  2
Sketchy
 70
    24
177
     3
291
     0
 70
    58
 90
        1
176
     1
 90
        2
176
     1
 90
        2
176
     1
 90
        0
176
     1
 40
0.6
176
     1
 40
30.0
176
     1
 62
     7
420
 16777215
176
     1
 90
        2
176
     1
 90
        2
176
     1
 62
     7
176
     1
 62
     7
176
     1
 90
        1
176
     1
 90
        1
176
     1
 40
40.0
176
     1
 90
       11
176
     1
 62
     7
176
     1
 40
1.0
176
     1
 90
        1
176
     1
 90
        6
176
     1
 90
        2
176
     1
 62
     7
176
     1
 90
        6
176
     1
 90
        0
176
     1
 90
        0
176
     1
290
     0
176
     1
 90
        1
176
     1
 40
0.0
176
     1
 90
        0
176
     1
290
     0
176
     1
290
     1
176
     1
290
     1
176
     1
290
     0
176
     1
290
     0
176
     1
290
     0
176
     1
290
     0
176
     1
290
     0
176
     1
290
     0
176
     1
 90
       50
176
     1
 40
0.0
176
     1
 40
1.0
176
     1
 90
        0
176
     1
 62
    18
420
        0
176
     1
 90
       50
176
     1
 90
        3
176
     1
 62
     5
420
      255
176
     1
290
     0
176
     1
 90
       50
176
     1
 90
       50
176
     1
 90
       50
176
     1
290
     0
176
     1
 90
       50
176
     1
 62
   256
176
     0
 40
1.0
176
     0
 90
        2
176
     1
  1
strokes_ogs.tif
176
     1
290
     0
176
     1
 40
1.0
176
     1
 40
1.0
176
     1
  0
VISUALSTYLE
  5
1D0
102
{ACAD_REACTORS
330
1C3
102
}
330
1C3
100
AcDbVisualStyle
  2
Thicken
 70
    13
177
     3
291
     1
 70
    58
 90
        2
176
     1
 90
        2
176
     1
 90
        0
176
     1
 90
        0
176
     1
 40
0.6
176
     1
 40
30.0
176
     1
 62
     7
420
 16777215
176
     1
 90
        1
176
     1
 90
        4
176
     1
 62
     7
176
     1
 62
   257
176
     1
 90
        1
176
     1
 90
        1
176
     1
 40
1.0
176
     1
 90
       12
176
     1
 62
     7
176
     1
 40
1.0
176
     1
 90
        1
176
     1
 90
        6
176
     1
 90
        2
176
     1
 62
     7
176
     1
 90
        5
176
     1
 90
        0
176
     1
 90
        0
176
     1
290
     0
176
     1
 90
        1
176
     1
 40
0.0
176
     1
 90
        0
176
     1
290
     0
176
     1
290
     1
176
     1
290
     1
176
     1
290
     0
176
     1
290
     0
176
     1
290
     0
176
     1
290
     0
176
     1
290
     0
176
     1
290
     0
176
     1
 90
       50
176
     1
 40
0.0
176
     1
 40
1.0
176
     1
 90
        0
176
     1
 62
    18
420
        0
176
     1
 90
       50
176
     1
 90
        3
176
     1
 62
     5
420
      255
176
     1
290
     0
176
     1
 90
       50
176
     1
 90
       50
176
     1
 90
       50
176
     1
290
     0
176
     1
 90
       50
176
     1
 62
   256
176
     0
 40
1.0
176
     0
 90
        2
176
     1
  1
strokes_ogs.tif
176
     1
290
     0
176
     1
 40
1.0
176
     1
 40
1.0
176
     1
  0
VISUALSTYLE
  5
1C9
102
{ACAD_REACTORS
330
1C3
102
}
330
1C3
100
AcDbVisualStyle
  2
Wireframe
 70
     5
177
     3
291
     0
 70
    58
 90
        0
176
     1
 90
        2
176
     1
 90
        0
176
     1
 90
        0
176
     1
 40
0.6
176
     1
 40
30.0
176
     1
 62
     7
420
 16777215
176
     1
 90
        1
176
     1
 90
        4
176
     1
 62
     7
176
     1
 62
   257
176
     1
 90
        1
176
     1
 90
        1
176
     1
 40
1.0
176
     1
 90
        0
176
     1
 62
   257
176
     1
 40
1.0
176
     1
 90
        1
176
     1
 90
        6
176
     1
 90
        2
176
     1
 62
     7
176
     1
 90
        3
176
     1
 90
        0
176
     1
 90
        0
176
     1
290
     0
176
     1
 90
        1
176
     1
 40
0.0
176
     1
 90
        0
176
     1
290
     0
176
     1
290
     1
176
     1
290
     1
176
     1
290
     0
176
     1
290
     0
176
     1
290
     0
176
     1
290
     0
176
     1
290
     0
176
     1
290
     0
176
     1
 90
       50
176
     1
 40
0.0
176
     1
 40
1.0
176
     1
 90
        0
176
     1
 62
    18
420
        0
176
     1
 90
       50
176
     1
 90
        3
176
     1
 62
     5
420
      255
176
     1
290
     0
176
     1
 90
       50
176
     1
 90
       50
176
     1
 90
       50
176
     1
290
     0
176
     1
 90
       50
176
     1
 62
   256
176
     0
 40
1.0
176
     0
 90
        2
176
     1
  1
strokes_ogs.tif
176
     1
290
     0
176
     1
 40
1.0
176
     1
 40
1.0
176
     1
  0
VISUALSTYLE
  5
1D9
102
{ACAD_REACTORS
330
1C3
102
}
330
1C3
100
AcDbVisualStyle
  2
X-Ray
 70
    25
177
     3
291
     0
 70
    58
 90
        2
176
     1
 90
        2
176
     1
 90
        1
176
     1
 90
        1
176
     1
 40
0.5
176
     1
 40
30.0
176
     1
 62
     7
420
 16777215
176
     1
 90
        1
176
     1
 90
        0
176
     1
 62
     7
176
     1
 62
   257
176
     1
 90
        1
176
     1
 90
        1
176
     1
 40
1.0
176
     1
 90
        8
176
     1
 62
     7
176
     1
 40
1.0
176
     1
 90
        1
176
     1
 90
        6
176
     1
 90
        2
176
     1
 62
     7
176
     1
 90
        3
176
     1
 90
        0
176
     1
 90
        0
176
     1
290
     0
176
     1
 90
       13
176
     1
 40
0.0
176
     1
 90
        0
176
     1
290
     0
176
     1
290
     1
176
     1
290
     1
176
     1
290
     0
176
     1
290
     0
176
     1
290
     0
176
     1
290
     0
176
     1
290
     0
176
     1
290
     0
176
     1
 90
       50
176
     1
 40
0.0
176
     1
 40
1.0
176
     1
 90
        0
176
     1
 62
    18
420
        0
176
     1
 90
       50
176
     1
 90
        3
176
     1
 62
     5
420
      255
176
     1
290
     0
176
     1
 90
       50
176
     1
 90
       50
176
     1
 90
       50
176
     1
290
     0
176
     1
 90
       50
176
     1
 62
   256
176
     0
 40
1.0
176
     0
 90
        2
176
     1
  1
strokes_ogs.tif
176
     1
290
     0
176
     1
 40
1.0
176
     1
 40
1.0
176
     1
  0
DICTIONARYVAR
  5
440
102
{ACAD_REACTORS
330
43F
102
}
330
43F
100
DictionaryVariables
280
     0
  1
1:1
  0
XRECORD
  5
205
102
{ACAD_REACTORS
330
204
102
}
330
204
100
AcDbXrecord
280
     1
1000
Grayscale
  0
XRECORD
  5
206
102
{ACAD_REACTORS
330
204
102
}
330
204
100
AcDbXrecord
280
     1
 40
0.0
  0
XRECORD
  5
207
102
{ACAD_REACTORS
330
204
102
}
330
204
100
AcDbXrecord
280
     1
 40
0.0
  0
XRECORD
  5
208
102
{ACAD_REACTORS
330
204
102
}
330
204
100
AcDbXrecord
280
     1
290
     0
  0
XRECORD
  5
209
102
{ACAD_REACTORS
330
204
102
}
330
204
100
AcDbXrecord
280
     1
 40
2.0
  0
XRECORD
  5
20A
102
{ACAD_REACTORS
330
204
102
}
330
204
100
AcDbXrecord
280
     1
 40
4.0
  0
XRECORD
  5
20B
102
{ACAD_REACTORS
330
204
102
}
330
204
100
AcDbXrecord
280
     1
290
     1
  0
XRECORD
  5
20C
102
{ACAD_REACTORS
330
204
102
}
330
204
100
AcDbXrecord
280
     1
290
     1
  0
XRECORD
  5
20D
102
{ACAD_REACTORS
330
204
102
}
330
204
100
AcDbXrecord
280
     1
290
     1
  0
XRECORD
  5
20E
102
{ACAD_REACTORS
330
204
102
}
330
204
100
AcDbXrecord
280
     1
290
     1
  0
XRECORD
  5
20F
102
{ACAD_REACTORS
330
204
102
}
330
204
100
AcDbXrecord
280
     1
290
     1
  0
XRECORD
  5
210
102
{ACAD_REACTORS
330
204
102
}
330
204
100
AcDbXrecord
280
     1
1000
auto
  0
XRECORD
  5
211
102
{ACAD_REACTORS
330
204
102
}
330
204
100
AcDbXrecord
280
     1
1000
auto
  0
XRECORD
  5
212
102
{ACAD_REACTORS
330
204
102
}
330
204
100
AcDbXrecord
280
     1
1000
auto
  0
XRECORD
  5
213
102
{ACAD_REACTORS
330
204
102
}
330
204
100
AcDbXrecord
280
     1
1000
auto
  0
XRECORD
  5
214
102
{ACAD_REACTORS
330
204
102
}
330
204
100
AcDbXrecord
280
     1
1000
auto
  0
XRECORD
  5
215
102
{ACAD_REACTORS
330
204
102
}
330
204
100
AcDbXrecord
280
     1
1000
auto
  0
XRECORD
  5
216
102
{ACAD_REACTORS
330
204
102
}
330
204
100
AcDbXrecord
280
     1
1000
auto
  0
XRECORD
  5
217
102
{ACAD_REACTORS
330
204
102
}
330
204
100
AcDbXrecord
280
     1
1000
auto
  0
XRECORD
  5
218
102
{ACAD_REACTORS
330
204
102
}
330
204
100
AcDbXrecord
280
     1
1000
auto
  0
XRECORD
  5
219
102
{ACAD_REACTORS
330
204
102
}
330
204
100
AcDbXrecord
280
     1
1000
auto
  0
XRECORD
  5
21A
102
{ACAD_REACTORS
330
204
102
}
330
204
100
AcDbXrecord
280
     1
290
     0
  0
XRECORD
  5
21B
102
{ACAD_REACTORS
330
204
102
}
330
204
100
AcDbXrecord
280
     1
290
     0
  0
XRECORD
  5
21C
102
{ACAD_REACTORS
330
204
102
}
330
204
100
AcDbXrecord
280
     1
290
     0
  0
XRECORD
  5
21D
102
{ACAD_REACTORS
330
204
102
}
330
204
100
AcDbXrecord
280
     1
290
     0
  0
XRECORD
  5
21E
102
{ACAD_REACTORS
330
204
102
}
330
204
100
AcDbXrecord
280
     1
 90
        0
  0
XRECORD
  5
21F
102
{ACAD_REACTORS
330
204
102
}
330
204
100
AcDbXrecord
280
     1
 90
        0
  0
XRECORD
  5
220
102
{ACAD_REACTORS
330
204
102
}
330
204
100
AcDbXrecord
280
     1
 90
        0
  0
XRECORD
  5
221
102
{ACAD_REACTORS
330
204
102
}
330
204
100
AcDbXrecord
280
     1
 90
        0
  0
XRECORD
  5
222
102
{ACAD_REACTORS
330
204
102
}
330
204
100
AcDbXrecord
280
     1
1000
auto
  0
XRECORD
  5
223
102
{ACAD_REACTORS
330
204
102
}
330
204
100
AcDbXrecord
280
     1
1000
auto
  0
XRECORD
  5
224
102
{ACAD_REACTORS
330
204
102
}
330
204
100
AcDbXrecord
280
     1
1000
auto
  0
XRECORD
  5
225
102
{ACAD_REACTORS
330
204
102
}
330
204
100
AcDbXrecord
280
     1
1000
auto
  0
XRECORD
  5
226
102
{ACAD_REACTORS
330
204
102
}
330
204
100
AcDbXrecord
280
     1
1000
auto
  0
XRECORD
  5
227
102
{ACAD_REACTORS
330
204
102
}
330
204
100
AcDbXrecord
280
     1
1000
auto
  0
XRECORD
  5
228
102
{ACAD_REACTORS
330
204
102
}
330
204
100
AcDbXrecord
280
     1
1000
auto
  0
XRECORD
  5
229
102
{ACAD_REACTORS
330
204
102
}
330
204
100
AcDbXrecord
280
     1
1000
auto
  0
XRECORD
  5
22A
102
{ACAD_REACTORS
330
204
102
}
330
204
100
AcDbXrecord
280
     1
1000
auto
  0
XRECORD
  5
22B
102
{ACAD_REACTORS
330
204
102
}
330
204
100
AcDbXrecord
280
     1
1000
auto
  0
XRECORD
  5
22C
102
{ACAD_REACTORS
330
204
102
}
330
204
100
AcDbXrecord
280
     1
 40
1.0
  0
XRECORD
  5
22D
102
{ACAD_REACTORS
330
204
102
}
330
204
100
AcDbXrecord
280
     1
 40
10.0
  0
XRECORD
  5
22E
102
{ACAD_REACTORS
330
204
102
}
330
204
100
AcDbXrecord
280
     1
 40
10.0
  0
XRECORD
  5
22F
102
{ACAD_REACTORS
330
204
102
}
330
204
100
AcDbXrecord
280
     1
 40
10.0
  0
XRECORD
  5
230
102
{ACAD_REACTORS
330
204
102
}
330
204
100
AcDbXrecord
280
     1
 40
10.0
  0
XRECORD
  5
231
102
{ACAD_REACTORS
330
204
102
}
330
204
100
AcDbXrecord
280
     1
 40
10.0
  0
XRECORD
  5
232
102
{ACAD_REACTORS
330
204
102
}
330
204
100
AcDbXrecord
280
     1
290
     1
  0
XRECORD
  5
233
102
{ACAD_REACTORS
330
204
102
}
330
204
100
AcDbXrecord
280
     1
 40
1.0
  0
XRECORD
  5
234
102
{ACAD_REACTORS
330
204
102
}
330
204
100
AcDbXrecord
280
     1
 40
9.65556373003858
  0
XRECORD
  5
235
102
{ACAD_REACTORS
330
204
102
}
330
204
100
AcDbXrecord
280
     1
 40
-229.6127402192811
  0
XRECORD
  5
236
102
{ACAD_REACTORS
330
204
102
}
330
204
100
AcDbXrecord
280
     1
1000
Landscape
  0
XRECORD
  5
237
102
{ACAD_REACTORS
330
204
102
}
330
204
100
AcDbXrecord
280
     1
 40
297.0
  0
XRECORD
  5
238
102
{ACAD_REACTORS
330
204
102
}
330
204
100
AcDbXrecord
280
     1
 40
210.0
  0
XRECORD
  5
239
102
{ACAD_REACTORS
330
204
102
}
330
204
100
AcDbXrecord
280
     1
1000
1:2
  0
XRECORD
  5
23A
102
{ACAD_REACTORS
330
204
102
}
330
204
100
AcDbXrecord
280
     1
290
     0
  0
XRECORD
  5
23B
102
{ACAD_REACTORS
330
204
102
}
330
204
100
AcDbXrecord
280
     1
290
     1
  0
XRECORD
  5
23C
102
{ACAD_REACTORS
330
204
102
}
330
204
100
AcDbXrecord
280
     1
290
     1
  0
XRECORD
  5
23D
102
{ACAD_REACTORS
330
204
102
}
330
204
100
AcDbXrecord
280
     1
 90
        4
  0
ENDSEC
  0
EOF
